<?xml version="1.0" standalone="no"?>
<!DOCTYPE svg PUBLIC "-//W3C//DTD SVG 1.1//EN" "http://www.w3.org/Graphics/SVG/1.1/DTD/svg11.dtd" >
<svg xmlns="http://www.w3.org/2000/svg">
<metadata></metadata>
<defs>
<font id="halis_rbold" horiz-adv-x="1482" >
<font-face units-per-em="2048" ascent="1638" descent="-410" />
<missing-glyph horiz-adv-x="614" />
<glyph unicode="&#xfb01;" horiz-adv-x="1208" d="M1044 991v-958q0 -14 -9.5 -23.5t-22.5 -9.5h-213q-13 0 -23 10t-10 23v751h-360v-751q0 -13 -10 -23t-23 -10h-213q-14 0 -23.5 10t-9.5 23v751h-74q-13 0 -23 10t-10 23v174q0 13 10 23t23 10h74v76q0 170 103.5 259t265.5 89q129 0 264 -59q13 -6 18.5 -20t-0.5 -26 l-57 -157q-6 -12 -18.5 -17.5t-24.5 -1.5q-108 33 -166 33q-45 0 -75.5 -25.5t-30.5 -82.5v-68h606q13 0 22.5 -9.5t9.5 -23.5z" />
<glyph unicode="&#xfb02;" horiz-adv-x="1224" d="M1061 1401v-1368q0 -13 -9.5 -23t-23.5 -10h-211q-13 0 -23 10t-10 23v1071q-24 50 -97 85.5t-146 35.5q-60 0 -97.5 -28.5t-37.5 -88.5v-84h184q14 0 23.5 -10t9.5 -23v-174q0 -13 -9.5 -23t-23.5 -10h-184v-751q0 -13 -10 -23t-23 -10h-213q-14 0 -23.5 10t-9.5 23v751 h-74q-13 0 -23 10t-10 23v174q0 13 10 23t23 10h74v76q0 173 100 262.5t250 89.5q92 0 185.5 -33.5t168.5 -95.5l21 78q3 15 15 24t26 9h135q14 0 23.5 -10t9.5 -23z" />
<glyph unicode="&#xfb03;" horiz-adv-x="1804" d="M1380 1343l-57 -157q-6 -12 -18.5 -17.5t-24.5 -1.5q-108 33 -166 33q-45 0 -75.5 -25.5t-30.5 -82.5v-68h600q13 0 22.5 -9.5t9.5 -23.5v-958q0 -14 -9.5 -23.5t-22.5 -9.5h-213q-13 0 -23 10t-10 23v751h-354v-751q0 -13 -10 -23t-23 -10h-213q-14 0 -23.5 10t-9.5 23 v751h-323v-751q0 -13 -10 -23t-23 -10h-213q-14 0 -23.5 10t-9.5 23v751h-74q-13 0 -23 10t-10 23v174q0 13 10 23t23 10h74v76q0 92 29 161t81 109t116 59t141 19q161 0 340 -88q101 88 264 88q129 0 264 -59q13 -6 18.5 -20t-0.5 -26zM406 1108v-84h323v76q0 38 6 76 q-95 53 -182 53q-65 0 -106 -28.5t-41 -92.5z" />
<glyph unicode="&#xfb04;" horiz-adv-x="1826" d="M406 784v-751q0 -13 -10 -23t-23 -10h-213q-14 0 -23.5 10t-9.5 23v751h-74q-13 0 -23 10t-10 23v174q0 13 10 23t23 10h74v76q0 92 29 161t81 109t116 59t141 19q152 0 335 -86q93 90 250 90q92 0 186 -33.5t169 -95.5l20 78q3 15 15 24t26 9h135q14 0 23.5 -10t9.5 -23 v-1368q0 -13 -9.5 -23t-23.5 -10h-211q-13 0 -23 10t-10 23v1071q-24 50 -97 85.5t-146 35.5q-60 0 -97.5 -28.5t-37.5 -88.5v-84h202q14 0 23.5 -10t9.5 -23v-174q0 -13 -9.5 -23t-23.5 -10h-202v-751q0 -13 -10 -23t-23 -10h-213q-14 0 -23.5 10t-9.5 23v751h-323z M406 1108v-84h323v76q0 38 6 76q-88 53 -182 53q-65 0 -106 -28.5t-41 -92.5z" />
<glyph horiz-adv-x="0" />
<glyph horiz-adv-x="682" />
<glyph unicode=" "  horiz-adv-x="614" />
<glyph unicode="&#x09;" horiz-adv-x="614" />
<glyph unicode="&#xa0;" horiz-adv-x="614" />
<glyph unicode="!" horiz-adv-x="720" d="M205 141q0 68 44 113t111 45q66 0 111 -45.5t45 -112.5q0 -65 -45 -111t-111 -46q-67 0 -111 46t-44 111zM502 1401v-541l-37 -399q0 -15 -11 -25t-26 -10h-131q-15 0 -26.5 10t-12.5 25l-35 399v541q0 13 10.5 24t24.5 11h209q13 0 24 -11t11 -24z" />
<glyph unicode="&#x22;" horiz-adv-x="880" d="M795 1403l-41 -453q-1 -15 -12.5 -25t-26.5 -10h-119q-15 0 -26.5 10t-12.5 25l-41 453q-2 14 8 24.5t23 10.5h217q13 0 23 -10.5t8 -24.5zM365 1403l-41 -453q-1 -15 -12.5 -25t-26.5 -10h-119q-15 0 -26.5 10t-12.5 25l-41 453q-2 14 8 24.5t23 10.5h217q13 0 23 -10.5 t8 -24.5z" />
<glyph unicode="#" horiz-adv-x="1177" d="M158 813h129v176q0 13 10.5 24t24.5 11h157q13 0 24 -11t11 -24v-176h150v176q0 14 10.5 24.5t23.5 10.5h158q14 0 24.5 -11t10.5 -24v-176h129q14 0 24.5 -10.5t10.5 -24.5v-155q0 -13 -10.5 -24t-24.5 -11h-129v-152h129q14 0 24.5 -11t10.5 -24v-153 q0 -14 -10.5 -24.5t-24.5 -10.5h-129v-178q0 -13 -10.5 -24t-24.5 -11h-158q-13 0 -23.5 10.5t-10.5 24.5v178h-150v-178q0 -13 -11 -24t-24 -11h-157q-14 0 -24.5 11t-10.5 24v178h-129q-14 0 -24.5 10.5t-10.5 24.5v153q0 13 10.5 24t24.5 11h129v152h-129q-14 0 -24.5 11 t-10.5 24v155q0 14 10.5 24.5t24.5 10.5zM514 588v-152h150v152h-150z" />
<glyph unicode="$" horiz-adv-x="1314" d="M438 1049q1 -29 17.5 -53.5t37 -40t63 -33t71 -26.5t86.5 -26q60 -18 95.5 -29.5t92.5 -34.5t92 -45.5t77 -59.5t65.5 -78.5t40 -100t16.5 -127.5q0 -156 -120 -268t-310 -137v-154q0 -14 -11 -24.5t-24 -10.5h-139q-14 0 -24.5 10.5t-10.5 24.5v154q-202 16 -408 123 q-13 6 -17.5 20.5t3.5 26.5l88 178q8 12 21.5 17t25.5 -1q223 -102 389 -102q98 0 168 40t70 105q0 27 -9.5 50.5t-21 40.5t-38.5 34.5t-45 27.5t-57.5 24.5t-59.5 21t-68 20.5q-15 5 -23 7q-54 16 -88.5 27.5t-83.5 32.5t-81 41.5t-67.5 52t-56 68t-34 86t-13.5 107.5 q0 178 111.5 288.5t294.5 125.5v150q0 13 10.5 23.5t24.5 10.5h139q14 0 24.5 -10.5t10.5 -23.5v-160q161 -25 340 -103q13 -6 18.5 -20t-0.5 -27l-82 -184q-6 -12 -19.5 -17.5t-27.5 -0.5q-90 35 -187.5 62.5t-146.5 27.5t-84.5 -5.5t-66.5 -19t-48.5 -40t-19.5 -66.5z" />
<glyph unicode="%" horiz-adv-x="1748" d="M709 1108q0 -44 -9.5 -87.5t-33 -89t-59 -79.5t-92.5 -56t-128 -22q-72 0 -130 22t-94 56t-59.5 79.5t-33 89t-9.5 87.5t9.5 88t33 90t59.5 81t94 57t130 22q71 0 128.5 -22t92.5 -57t58.5 -81t33 -90t9.5 -88zM387 995q27 0 46 12.5t27.5 33t11.5 36.5t3 31 q0 16 -3 32.5t-11.5 37t-27.5 33t-46 12.5q-23 0 -41 -9t-27 -21.5t-15 -30t-7.5 -30t-1.5 -24.5q0 -15 3 -31t11.5 -36.5t28.5 -33t49 -12.5zM1030 1434h172q12 0 20 -10.5t5 -22.5l-455 -1368q-4 -15 -17 -24t-28 -9h-174q-12 0 -20 10.5t-5 22.5l457 1368q5 14 17.5 23.5 t27.5 9.5zM1366 662q71 0 128.5 -22t92.5 -57t58.5 -81t33 -90t9.5 -88t-9.5 -87.5t-33 -89t-59 -79.5t-92.5 -56t-128 -22q-72 0 -129.5 22t-93 56t-59 79.5t-33 89t-9.5 87.5t9.5 88t33 90t59 81t93 57t129.5 22zM1366 211q27 0 46.5 13t28 32.5t12 36t3.5 31.5 q0 23 -5.5 45.5t-27 45.5t-57.5 23q-37 0 -59 -23t-27.5 -45.5t-5.5 -45.5q0 -15 3.5 -31.5t12 -36t28.5 -32.5t48 -13z" />
<glyph unicode="&#x26;" horiz-adv-x="1472" d="M1171 317l154 -163q10 -11 9.5 -25t-9.5 -25l-131 -118q-10 -10 -24 -10t-25 10l-131 135q-152 -135 -393 -135q-99 2 -185 38.5t-145 95.5t-93 135t-34 157q0 129 58.5 215.5t164.5 156.5q-5 3 -10.5 11t-7.5 10q-115 130 -115 297q0 65 22.5 126.5t66.5 113t118 83 t168 31.5q88 0 158 -30t112 -80t64 -111t22 -127q0 -204 -207 -367l207 -221q40 94 64 199q3 14 14.5 22t26.5 7l163 -33q15 -3 23.5 -14.5t7.5 -26.5q-21 -187 -113 -357zM621 1221q-59 0 -85 -38t-26 -79q0 -36 17 -72.5t35 -58t48 -51.5q56 42 86.5 84t30.5 100 q0 47 -27.5 81t-78.5 34zM635 238q125 0 203 67l-269 289q-135 -94 -137 -170q0 -84 60.5 -135t142.5 -51z" />
<glyph unicode="'" horiz-adv-x="450" d="M365 1403l-41 -453q-1 -15 -12.5 -25t-26.5 -10h-119q-15 0 -26.5 10t-12.5 25l-41 453q-2 14 8 24.5t23 10.5h217q13 0 23 -10.5t8 -24.5z" />
<glyph unicode="(" horiz-adv-x="655" d="M61 602q0 508 324 989q9 12 23 15t26 -4l129 -78q13 -7 17 -22t-2 -27q-240 -454 -240 -871q0 -431 240 -885q6 -12 2 -27t-17 -22l-127 -76q-14 -7 -28 -4t-23 15q-324 477 -324 997z" />
<glyph unicode=")" horiz-adv-x="655" d="M594 602q0 -520 -324 -997q-9 -12 -23 -15t-28 4l-127 76q-13 7 -17 22t3 27q239 452 239 885q0 419 -239 871q-6 12 -3 27t15 22l129 78q14 7 28 4t23 -15q324 -481 324 -989z" />
<glyph unicode="*" horiz-adv-x="983" d="M401 717l-8 170l-151 -76q-12 -8 -27 -3.5t-22 17.5l-54 90q-6 13 -2.5 28t15.5 22l141 94l-141 92q-27 17 -13 49l54 90q7 13 22 18t27 -3l151 -76l8 170q2 14 12.5 24.5t24.5 10.5h107q13 0 24 -10.5t13 -24.5l8 -170l151 76q12 8 26.5 3t20.5 -18l54 -90 q7 -14 4 -27.5t-15 -21.5l-143 -92l143 -94q12 -7 15.5 -22.5t-4.5 -27.5l-54 -90q-6 -13 -20.5 -17.5t-26.5 3.5l-151 76l-8 -170q-1 -15 -12 -25t-25 -10h-107q-15 0 -25 10t-12 25z" />
<glyph unicode="+" horiz-adv-x="1142" d="M455 322v256h-256q-14 0 -24.5 10.5t-10.5 23.5v162q0 14 11 24.5t24 10.5h256v256q0 14 10.5 24.5t23.5 10.5h164q13 0 24 -11t11 -24v-256h256q14 0 24.5 -10.5t10.5 -24.5v-162q0 -13 -10.5 -23.5t-24.5 -10.5h-256v-256q0 -14 -11 -24.5t-24 -10.5h-164 q-13 0 -23.5 10.5t-10.5 24.5z" />
<glyph unicode="," horiz-adv-x="679" d="M276 -330l-81 41q-12 6 -16.5 19.5t1.5 25.5q30 56 59 124.5t40 107.5q-111 36 -111 159q0 71 47.5 119.5t118.5 48.5q94 0 138 -53.5t44 -130.5q0 -85 -60 -217t-128 -229q-9 -12 -23.5 -16.5t-28.5 1.5z" />
<glyph unicode="-" horiz-adv-x="913" d="M199 723h516q13 0 24 -10.5t11 -24.5v-166q0 -14 -11 -24.5t-24 -10.5h-516q-13 0 -24 10.5t-11 24.5v166q0 14 11 24.5t24 10.5z" />
<glyph unicode="." horiz-adv-x="669" d="M164 158q0 71 51 121.5t121 50.5q71 0 120.5 -50t49.5 -122q0 -70 -50 -120t-120 -50t-121 50t-51 120z" />
<glyph unicode="/" horiz-adv-x="841" d="M770 1401l-455 -1368q-4 -15 -17 -24t-28 -9h-174q-12 0 -19.5 10.5t-4.5 22.5l456 1368q5 14 17.5 23.5t27.5 9.5h172q12 0 20 -10.5t5 -22.5z" />
<glyph unicode="0" horiz-adv-x="1323" d="M659 1399q119 0 214.5 -46.5t155 -119t99.5 -168.5t56 -188t16 -183q0 -94 -16 -186.5t-56 -188t-99.5 -168t-155 -118t-214.5 -45.5q-118 0 -213 46t-154 118t-98.5 167.5t-55 188t-15.5 186.5q0 91 15.5 183t55 188t98.5 168.5t154 119t213 46.5zM659 236 q64 0 114 37.5t76.5 91t43.5 121t22 117.5t5 91t-5 90.5t-22 117t-43.5 120t-76.5 90t-114 37.5q-54 0 -97.5 -25.5t-70.5 -68.5t-46 -91.5t-28.5 -102.5t-13.5 -94t-4 -73q0 -41 5 -91t22 -117.5t44 -121t76 -91t113 -37.5z" />
<glyph unicode="1" horiz-adv-x="854" d="M670 1354v-1319q0 -13 -11 -24t-24 -11h-209q-14 0 -24.5 11t-10.5 24v934l-160 -88q-32 -14 -49 12l-82 129q-7 12 -4.5 26t13.5 23l383 297q28 21 61 21h82q13 0 24 -10.5t11 -24.5z" />
<glyph unicode="2" horiz-adv-x="1101" d="M223 1008l-117 127q-10 11 -10 25t10 24q105 110 218.5 163.5t222.5 53.5q192 0 312 -103.5t120 -298.5q0 -148 -170 -383l-264 -356h362q13 0 24 -11t11 -24v-190q0 -13 -11 -24t-24 -11h-755q-14 0 -24.5 11t-10.5 24v45q0 37 20 63l467 637q105 148 105 228 q0 61 -37.5 103t-122.5 42q-116 0 -277 -145q-11 -10 -24.5 -9.5t-24.5 9.5z" />
<glyph unicode="3" horiz-adv-x="1097" d="M975 997q0 -88 -39 -171t-107 -132q73 -43 109.5 -126.5t36.5 -170.5q0 -49 -11 -99t-42.5 -107t-80.5 -100.5t-132 -72t-189 -28.5q-130 0 -229 47.5t-185 124.5q-10 9 -10.5 24t8.5 25l113 133q9 11 23 12t26 -8q58 -50 128.5 -83.5t125.5 -33.5q78 0 132.5 43 t54.5 123q0 82 -55 130t-132 48h-168q-14 0 -24.5 10.5t-10.5 24.5v172q0 14 10.5 24.5t24.5 10.5h168q76 0 131.5 49t55.5 131q0 80 -54.5 123t-132.5 43q-54 0 -124.5 -33.5t-129.5 -82.5q-11 -9 -25.5 -8t-23.5 12l-113 133q-9 10 -8.5 25t10.5 24q86 77 185 124.5 t229 47.5q106 0 189 -29t132 -72t80.5 -100t42.5 -107.5t11 -99.5z" />
<glyph unicode="4" horiz-adv-x="1136" d="M895 272v-237q0 -13 -10.5 -24t-24.5 -11h-215q-13 0 -24 11t-11 24v237h-514q-14 0 -24.5 11t-10.5 24v90q0 35 19 64l575 893q16 28 54 28h151q14 0 24.5 -10.5t10.5 -23.5v-822h145q14 0 24.5 -10.5t10.5 -23.5v-185q0 -13 -10.5 -24t-24.5 -11h-145zM610 827 l-188 -301h188v301z" />
<glyph unicode="5" horiz-adv-x="1161" d="M150 244l133 121q11 9 25.5 7.5t23.5 -12.5q105 -122 221 -122q98 0 155.5 64t57.5 149q0 84 -57.5 144t-157.5 60h-315q-14 0 -24.5 10.5t-10.5 24.5v666q0 14 10.5 24.5t24.5 10.5h679q13 0 24 -10.5t11 -24.5v-182q0 -14 -11 -24.5t-24 -10.5h-423v-244h59 q113 0 201 -30t140.5 -76.5t86.5 -109t46.5 -121t12.5 -118.5q0 -49 -12.5 -104t-47.5 -118.5t-87 -113t-140.5 -83t-199.5 -33.5q-235 0 -406 207q-9 11 -7.5 25.5t12.5 23.5z" />
<glyph unicode="6" horiz-adv-x="1200" d="M748 1380l96 -145q7 -11 3 -25t-16 -20q-193 -112 -331 -305q55 24 141 24q102 -5 181.5 -38.5t126.5 -81t77 -110.5t40.5 -120t10.5 -117q0 -33 -6 -70t-21 -81.5t-38 -86.5t-61 -81.5t-85.5 -69t-115.5 -47.5t-148 -18q-111 0 -198.5 36t-138 89t-84 120.5t-45 123 t-11.5 104.5q-1 139 33 266.5t89 224.5t132 183t154 146.5t165 111.5q12 6 27.5 2.5t22.5 -15.5zM602 242q95 0 150 63t55 148t-54 147t-151 62t-150.5 -60.5t-56.5 -148.5q0 -86 55 -148.5t152 -62.5z" />
<glyph unicode="7" horiz-adv-x="1009" d="M61 1171v183q0 14 10.5 24.5t24.5 10.5h795q13 0 24 -10.5t11 -24.5v-47q0 -33 -15 -68l-501 -1206q-4 -15 -18 -24t-30 -9h-219q-12 0 -19 10.5t-3 22.5l444 1104h-469q-14 0 -24.5 10.5t-10.5 23.5z" />
<glyph unicode="8" horiz-adv-x="1159" d="M1036 993q0 -44 -12 -93t-49 -108t-94 -98q155 -93 155 -293q0 -49 -11 -99.5t-42.5 -108.5t-80 -102t-132 -73.5t-190.5 -29.5t-190.5 29t-132 73t-80.5 101.5t-43 108t-11 99.5q0 89 38.5 172.5t108.5 124.5q-147 105 -147 297q0 49 11 99.5t43 107.5t80.5 100t132 72 t190.5 29t190.5 -29t132 -72t80 -100t42.5 -107.5t11 -99.5zM580 229q77 0 131.5 46.5t54.5 123.5q0 82 -54 128t-132 46q-79 0 -134 -46t-55 -128q0 -81 55 -125.5t134 -44.5zM580 819q78 0 132 46t54 128q0 80 -53.5 123t-132.5 43t-134 -43t-55 -123q0 -82 55 -128 t134 -46z" />
<glyph unicode="9" horiz-adv-x="1200" d="M453 10l-97 146q-7 11 -3 25t16 20q193 112 331 305q-58 -25 -141 -25q-102 5 -181.5 38.5t-126.5 81t-77 110.5t-40.5 120t-10.5 117q0 33 6 70t21 82t38 86.5t61 81.5t85.5 69.5t115.5 47.5t148 18q111 0 198.5 -36t138 -89t84 -120.5t45 -123t11.5 -104.5 q1 -139 -33 -266.5t-89 -224.5t-132 -183t-154 -146.5t-165 -111.5q-12 -7 -26.5 -3.5t-22.5 15.5zM598 1149q-95 0 -150 -63t-55 -148t54 -147t151 -62t150.5 60.5t56.5 148.5q0 86 -55 148.5t-152 62.5z" />
<glyph unicode=":" horiz-adv-x="669" d="M164 158q0 71 51 121.5t121 50.5q71 0 120.5 -50t49.5 -122q0 -70 -50 -120t-120 -50t-121 50t-51 120zM164 858q0 71 51 121.5t121 50.5q71 0 120.5 -50t49.5 -122q0 -70 -50 -120t-120 -50t-121 50t-51 120z" />
<glyph unicode=";" horiz-adv-x="679" d="M164 858q0 71 51 121.5t121 50.5q71 0 120.5 -50t49.5 -122q0 -70 -50 -120t-120 -50t-121 50t-51 120zM276 -330l-81 41q-12 6 -16.5 19.5t1.5 25.5q30 56 59 124.5t40 107.5q-111 36 -111 159q0 71 47.5 119.5t118.5 48.5q94 0 138 -53.5t44 -130.5q0 -85 -60 -217 t-128 -229q-9 -12 -23.5 -16.5t-28.5 1.5z" />
<glyph unicode="&#x3c;" horiz-adv-x="903" d="M455 602l358 -227q12 -7 15 -22t-3 -27l-84 -144q-6 -12 -20.5 -15.5t-26.5 3.5l-604 365q-29 19 -29 53v28q0 33 31 54l602 362q12 7 26.5 3.5t20.5 -15.5l82 -141q8 -13 5 -28t-15 -22z" />
<glyph unicode="=" horiz-adv-x="1044" d="M846 797h-647q-14 0 -24.5 10.5t-10.5 23.5v164q0 13 11 24t24 11h647q14 0 24.5 -11t10.5 -24v-164q0 -13 -10.5 -23.5t-24.5 -10.5zM846 360h-647q-13 0 -24 11t-11 24v160q0 13 11 24t24 11h647q14 0 24.5 -11t10.5 -24v-160q0 -13 -10.5 -24t-24.5 -11z" />
<glyph unicode="&#x3e;" horiz-adv-x="903" d="M90 375l359 227l-359 227q-12 7 -15 22t3 28l82 141q8 12 22.5 15.5t26.5 -3.5l602 -362q31 -21 31 -54v-28q0 -32 -31 -53l-604 -365q-10 -8 -24.5 -4t-20.5 16l-84 144q-6 12 -3 27t15 22z" />
<glyph unicode="?" horiz-adv-x="1169" d="M436 125q0 67 46 112.5t114 45.5q67 0 113.5 -45.5t46.5 -112.5t-47 -113.5t-113 -46.5q-69 0 -114.5 44t-45.5 116zM727 575v-110q0 -13 -10.5 -24t-24.5 -11h-190q-14 0 -24.5 11t-10.5 24v117q0 43 10 81t32.5 74.5t40.5 59t52 61.5q31 36 45.5 54t36.5 51t31.5 64.5 t9.5 64.5q0 18 -5 35t-18 36.5t-41.5 30t-68.5 8.5q-54 -3 -105.5 -35t-124.5 -102q-10 -11 -25 -11t-24 11l-125 117q-10 10 -10.5 25t8.5 24q110 117 212 170t229 53q168 0 273.5 -95t105.5 -265q0 -55 -16 -108.5t-48 -104.5t-57.5 -83.5t-65.5 -78.5q-30 -35 -46 -55.5 t-31 -46.5t-15 -42z" />
<glyph unicode="@" horiz-adv-x="2347" d="M1188 1495q234 0 429.5 -75.5t328 -207.5t205.5 -312.5t73 -389.5q0 -98 -16.5 -193.5t-56.5 -189.5t-98.5 -165t-150 -115t-204.5 -44q-82 0 -148 36.5t-104 103.5q-123 -97 -289 -97q-115 0 -208 36t-150.5 92.5t-96 131t-54 146.5t-15.5 145q0 60 11.5 120.5t35 124 t65.5 117.5t97.5 97t136.5 67.5t178 24.5q166 0 281 -88l12 39q15 33 47 33h119q14 0 24.5 -11t10.5 -24v-754q2 -44 18.5 -69t61.5 -25q97 0 159 129.5t62 321.5q0 157 -52 291.5t-148 233.5t-242.5 155.5t-327.5 56.5q-369 0 -581.5 -233t-207.5 -629q2 -117 41 -232 t117.5 -225.5t210.5 -206t305 -157.5q12 -6 17 -18.5t1 -24.5l-84 -170q-6 -13 -20 -19t-27 0q-406 146 -616.5 423t-212.5 630q-1 239 73.5 445t211 355.5t337.5 234.5t441 85zM1376 195v405q-35 46 -89.5 77.5t-119.5 31.5q-54 0 -98 -17.5t-71 -46.5t-46.5 -62.5t-29 -71 t-13.5 -65t-4 -51.5q0 -29 5.5 -63t22.5 -79.5t44 -81t76.5 -60.5t113.5 -25q137 0 209 109z" />
<glyph unicode="A" d="M776 1430l631 -1399q5 -11 -2 -21t-19 -10h-251q-16 0 -30 9t-18 24l-124 303h-443l-123 -303q-13 -33 -47 -33h-254q-12 0 -18.5 10t-1.5 21l629 1399q11 22 34 22q26 0 37 -22zM741 887l-129 -322h258z" />
<glyph unicode="B" horiz-adv-x="1382" d="M1083 719q76 -39 126.5 -117.5t50.5 -175.5q0 -60 -15 -117.5t-52.5 -114.5t-94 -99t-147 -68.5t-203.5 -26.5h-508q-14 0 -24.5 11t-10.5 24v1364q0 13 10.5 24t24.5 11h508q113 0 203.5 -26.5t147 -69t94 -100t52.5 -115t15 -117.5q0 -81 -51 -166t-126 -121zM768 266 q49 0 86.5 13t57.5 31.5t33 42.5t16.5 41t3.5 32q0 24 -7 46.5t-25.5 48t-59 42t-99.5 17.5h-282v-314h276zM774 838q58 1 99 20.5t59.5 48.5t25.5 53t7 46q0 15 -3.5 32.5t-16.5 41.5t-33 43t-57.5 32.5t-86.5 13.5h-276v-331h282z" />
<glyph unicode="C" horiz-adv-x="1517" d="M1370 1161l-141 -135q-9 -10 -23.5 -9.5t-23.5 11.5q-66 66 -162 111t-184 45q-76 0 -138.5 -20t-105 -51.5t-75 -75t-51 -86t-30 -89t-15 -80.5t-3.5 -63t4 -62.5t15.5 -80t30 -89t51.5 -85.5t75 -74.5t105 -51.5t139 -20q89 0 185 40.5t173 102.5q11 9 25.5 8t23.5 -12 l119 -145q9 -10 8.5 -25.5t-10.5 -25.5q-233 -217 -526 -217q-114 0 -211.5 25t-169 67.5t-129.5 101t-95 124t-62 139t-35.5 142.5t-10.5 138q0 67 10.5 135t35.5 141t62 139t95 125t129.5 102t169 68t211.5 25q166 0 295 -63t241 -181q9 -9 8.5 -24t-10.5 -25z" />
<glyph unicode="D" horiz-adv-x="1546" d="M715 0h-475q-14 0 -24.5 11t-10.5 24v1364q0 13 10.5 24t24.5 11h475q132 0 241.5 -32t185 -87.5t131.5 -125.5t88 -152t47 -160.5t15 -157.5q0 -98 -20.5 -193t-72.5 -192t-129.5 -169.5t-203 -118.5t-282.5 -46zM492 266h223q75 0 137 19t104 50t74.5 73t50.5 83.5 t29.5 87t15.5 78.5t4 62q0 43 -8 92.5t-34.5 116t-69.5 117.5t-121.5 87.5t-181.5 36.5h-223v-903z" />
<glyph unicode="E" horiz-adv-x="1302" d="M995 573h-501v-307h651q13 0 24 -11t11 -24v-196q0 -13 -11 -24t-24 -11h-905q-14 0 -24.5 11t-10.5 24v1364q0 13 10.5 24t24.5 11h905q13 0 24 -11t11 -24v-197q0 -14 -11 -24.5t-24 -10.5h-651v-327h501q13 0 24 -11t11 -24v-197q0 -14 -11 -24.5t-24 -10.5z" />
<glyph unicode="F" horiz-adv-x="1302" d="M995 573h-501v-538q0 -13 -11 -24t-24 -11h-219q-14 0 -24.5 11t-10.5 24v1364q0 13 10.5 24t24.5 11h905q13 0 24 -11t11 -24v-197q0 -14 -11 -24.5t-24 -10.5h-651v-327h501q13 0 24 -11t11 -24v-197q0 -14 -11 -24.5t-24 -10.5z" />
<glyph unicode="G" horiz-adv-x="1488" d="M1071 502h-248q-13 0 -24 11t-11 24v192q0 13 11 24t24 11h504q13 0 24 -11t11 -24v-502q0 -34 -25 -59q-205 -186 -501 -186q-114 0 -211.5 25t-169 67.5t-129.5 101t-95 124t-62 139t-35.5 142.5t-10.5 138q0 67 10.5 135t35.5 141t62 139t95 125t129.5 102t169 68 t211.5 25q296 0 505 -209q11 -11 11 -26t-11 -25l-131 -141q-9 -9 -22.5 -9t-24.5 9q-65 56 -155.5 93.5t-171.5 37.5q-76 0 -138.5 -19.5t-105 -51t-75 -74.5t-51 -85.5t-30 -88.5t-15 -79.5t-3.5 -62.5t3.5 -63.5t15 -82t30 -91.5t51 -88.5t75 -77.5t105 -53.5 t138.5 -20.5q63 0 130.5 20t104.5 53v183z" />
<glyph unicode="H" horiz-adv-x="1587" d="M496 573v-538q0 -13 -11 -24t-24 -11h-221q-14 0 -24.5 11t-10.5 24v1364q0 13 10.5 24t24.5 11h221q13 0 24 -11t11 -24v-559h598v559q0 14 10.5 24.5t23.5 10.5h220q13 0 23.5 -10.5t10.5 -24.5v-1364q0 -14 -10.5 -24.5t-23.5 -10.5h-220q-13 0 -23.5 10.5t-10.5 24.5 v538h-598z" />
<glyph unicode="I" horiz-adv-x="700" d="M496 1399v-1364q0 -13 -11 -24t-24 -11h-221q-14 0 -24.5 11t-10.5 24v1364q0 13 10.5 24t24.5 11h221q13 0 24 -11t11 -24z" />
<glyph unicode="J" horiz-adv-x="1292" d="M74 434l192 70q14 5 26.5 -1.5t16.5 -19.5q84 -226 254 -221q63 2 109 27t68.5 57t36 77.5t16 74.5t2.5 61v840q0 14 10.5 24.5t23.5 10.5h224q13 0 23.5 -10.5t10.5 -24.5v-840q0 -77 -13 -150.5t-49.5 -152t-92.5 -136t-151.5 -95t-217.5 -37.5q-90 0 -165 21t-128 56 t-96.5 87.5t-71.5 109t-51 127.5q-4 13 2.5 26.5t20.5 18.5z" />
<glyph unicode="K" horiz-adv-x="1464" d="M461 0h-221q-14 0 -24.5 11t-10.5 24v1364q0 13 10.5 24t24.5 11h221q13 0 24 -11t11 -24v-539l495 547q24 27 58 27h268q10 0 14 -10t-2 -17l-612 -668l661 -712q6 -7 2 -17t-14 -10h-279q-34 0 -59 25l-532 579v-569q0 -13 -11 -24t-24 -11z" />
<glyph unicode="L" horiz-adv-x="1155" d="M496 1399v-1133h501q13 0 24 -11t11 -24v-196q0 -13 -11 -24t-24 -11h-757q-14 0 -24.5 11t-10.5 24v1364q0 13 10.5 24t24.5 11h221q13 0 24 -11t11 -24z" />
<glyph unicode="M" horiz-adv-x="2134" d="M1028 12l-395 819l-252 -798q-5 -14 -17.5 -23.5t-27.5 -9.5h-240q-12 0 -19 10.5t-3 22.5l493 1392q3 11 13 18t22 7q26 0 37 -25l428 -927l428 927q11 25 37 25q12 0 22 -7t13 -18l493 -1392q4 -12 -3 -22.5t-19 -10.5h-240q-15 0 -27.5 9.5t-17.5 23.5l-252 798 l-395 -819q-14 -24 -39 -24t-39 24z" />
<glyph unicode="N" horiz-adv-x="1589" d="M461 0h-221q-14 0 -24.5 11t-10.5 24v1386q0 12 7.5 20.5t18.5 8.5q30 0 50 -20l813 -809v778q0 14 10.5 24.5t23.5 10.5h222q13 0 23.5 -10.5t10.5 -24.5v-1387q0 -10 -7 -17t-17 -7q-24 0 -43 16l-821 830v-799q0 -13 -11 -24t-24 -11z" />
<glyph unicode="O" horiz-adv-x="1667" d="M836 1458q113 0 210 -25.5t168 -68.5t128.5 -102.5t94.5 -125.5t61.5 -139.5t35 -142t10.5 -135.5q0 -69 -10.5 -138t-35 -143t-61.5 -140t-94.5 -125.5t-128.5 -102.5t-168 -68t-210 -25q-114 0 -211.5 25t-169 68t-129.5 102.5t-95 125.5t-62 140t-35.5 143t-10.5 138 q0 67 10.5 135.5t35.5 142t62 139t95 125.5t129.5 103t169 68.5t211.5 25.5zM836 246q74 0 136 20.5t103.5 52.5t74 76.5t50.5 88t29.5 90.5t15.5 81.5t4 63.5q0 44 -8 94.5t-34.5 120t-69 123.5t-121 92.5t-180.5 38.5q-76 0 -138.5 -20t-105 -52t-75 -76t-51 -87t-30 -90 t-15 -81t-3.5 -63t3.5 -63t15 -81.5t30 -91t51 -88t75 -76.5t105 -52.5t138.5 -20.5z" />
<glyph unicode="P" horiz-adv-x="1386" d="M496 498v-463q0 -13 -11 -24t-24 -11h-221q-14 0 -24.5 11t-10.5 24v1364q0 13 10.5 24t24.5 11h512q113 0 203.5 -30.5t147 -78t94 -111t52.5 -124t15 -121.5q0 -136 -72.5 -246t-182.5 -167.5t-231 -57.5h-282zM770 766q47 1 84.5 16.5t59 38t35.5 51t19 52.5t5 45 q0 24 -5 48t-19.5 52.5t-37 49.5t-61 35.5t-88.5 14.5h-266v-403h274z" />
<glyph unicode="Q" horiz-adv-x="1687" d="M836 1454q113 0 210 -25t168 -68t128.5 -102t94.5 -125t61.5 -139t35 -141t10.5 -135q0 -108 -26 -213.5t-90.5 -213t-161.5 -179.5l313 -369q11 -15 2 -27q-6 -12 -20 -12h-269q-33 0 -57 27l-213 270q-102 -20 -186 -20q-114 0 -211.5 25t-169 67.5t-129.5 101t-95 124 t-62 139t-35.5 142.5t-10.5 138q0 67 10.5 135t35.5 141t62 139t95 125t129.5 102t169 68t211.5 25zM836 250q102 0 180.5 38.5t121 92.5t69 123.5t34.5 120t8 94.5q0 43 -8 94t-34.5 119.5t-69 122t-121 91.5t-180.5 38q-76 0 -138.5 -20t-105 -51.5t-75 -75t-51 -86 t-30 -89t-15 -80.5t-3.5 -63t3.5 -63t15 -81t30 -90t51 -87t75 -76t105 -52t138.5 -20z" />
<glyph unicode="R" horiz-adv-x="1382" d="M492 498v-463q0 -13 -11 -24t-24 -11h-217q-14 0 -24.5 11t-10.5 24v1364q0 13 10.5 24t24.5 11h508q113 0 203.5 -30.5t147 -78t94 -111t52.5 -124t15 -121.5q0 -149 -78 -260t-205 -166l242 -512q5 -11 -2 -21t-19 -10h-246q-35 0 -49 31l-219 467h-192zM766 766 q47 1 84.5 16.5t59 38t35.5 51t19 52.5t5 45q0 24 -5 48t-19.5 52.5t-37 49.5t-61 35.5t-88.5 14.5h-266v-403h274z" />
<glyph unicode="S" horiz-adv-x="1314" d="M438 1053q1 -28 17 -52t35 -40t61 -35t67.5 -28.5t83.5 -29.5q184 -63 261 -104q199 -106 226 -283q6 -41 3 -86q-11 -177 -156 -294t-366 -117q-148 0 -272.5 32t-252.5 97q-12 6 -16 20.5t2 26.5l94 178q6 12 20.5 17t26.5 -1q220 -102 383 -102q94 0 157 37t73 100 q11 71 -50.5 117.5t-179.5 83.5q-172 54 -222 75q-194 80 -254 214q-32 70 -32 159q0 193 129.5 305.5t335.5 112.5q84 0 213 -25.5t279 -91.5q12 -6 17 -19.5t-1 -27.5l-76 -178q-6 -13 -19.5 -19t-27.5 -1q-221 92 -364 92q-84 0 -138 -31.5t-57 -101.5z" />
<glyph unicode="T" horiz-adv-x="1255" d="M479 35v1132h-352q-13 0 -24 10.5t-11 24.5v197q0 13 11 24t24 11h1001q14 0 24.5 -11t10.5 -24v-197q0 -14 -10.5 -24.5t-24.5 -10.5h-356v-1132q0 -13 -11 -24t-24 -11h-223q-14 0 -24.5 11t-10.5 24z" />
<glyph unicode="U" horiz-adv-x="1507" d="M754 250q63 0 113.5 24t79.5 59.5t49 79.5t27 79.5t7 64.5v842q0 13 11 24t24 11h223q14 0 24.5 -11t10.5 -24v-842q0 -76 -18 -152.5t-61 -153t-106.5 -134.5t-163 -94.5t-220.5 -36.5q-122 0 -221 36.5t-162.5 94.5t-107 134.5t-61.5 153t-18 152.5v842q0 13 11 24 t24 11h221q14 0 24.5 -11t10.5 -24v-842q0 -29 7.5 -64.5t27.5 -79.5t50 -79.5t80.5 -59.5t113.5 -24z" />
<glyph unicode="V" d="M1407 1401l-631 -1397q-9 -22 -37 -22q-25 0 -34 22l-629 1397q-5 12 1.5 22.5t18.5 10.5h254q34 0 47 -33l344 -860l346 860q4 15 18 24t30 9h251q12 0 18.5 -10.5t2.5 -22.5z" />
<glyph unicode="W" horiz-adv-x="2234" d="M1116 1448q26 0 37 -25l342 -854l340 832q4 15 18 24t29 9h254q12 0 18.5 -10.5t2.5 -22.5l-629 -1391q-7 -20 -31 -20t-31 20l-350 807l-350 -807q-7 -20 -31 -20q-23 0 -33 20l-626 1391q-5 12 1.5 22.5t18.5 10.5h254q34 0 47 -33l340 -832l342 854q11 25 37 25z" />
<glyph unicode="X" horiz-adv-x="1349" d="M985 1436h268q11 0 17 -10t0 -19l-445 -688l445 -690q6 -9 0 -19t-17 -10h-264q-32 0 -53 31l-262 444l-260 -444q-21 -31 -54 -31h-264q-11 0 -16.5 10t0.5 19l442 690l-442 688q-6 9 -0.5 19t16.5 10h269q32 0 53 -31l256 -440l258 440q21 31 53 31z" />
<glyph unicode="Y" horiz-adv-x="1386" d="M838 641v-606q0 -13 -11 -24t-24 -11h-219q-14 0 -24.5 11t-10.5 24v602l-469 766q-6 11 -0.5 21t16.5 10h250q32 0 53 -31l293 -500l293 500q21 31 53 31h252q11 0 17 -10.5t0 -20.5z" />
<glyph unicode="Z" horiz-adv-x="1353" d="M578 266h606q14 0 24.5 -11t10.5 -24v-196q0 -13 -10.5 -24t-24.5 -11h-989q-13 0 -24 11t-11 24v12q0 34 16 66l588 1056h-545q-13 0 -24 10.5t-11 24.5v195q0 13 11 24t24 11h938q13 0 24 -11t11 -24v-17q0 -33 -16 -65z" />
<glyph unicode="[" horiz-adv-x="552" d="M61 -385v1948q0 13 10.5 23.5t24.5 10.5h361q14 0 24.5 -10.5t10.5 -23.5v-150q0 -13 -11 -24t-24 -11h-129v-1579h129q13 0 24 -10.5t11 -24.5v-149q0 -13 -11 -24t-24 -11h-361q-14 0 -24.5 11t-10.5 24z" />
<glyph unicode="\" horiz-adv-x="841" d="M526 33l-454 1368q-3 12 4.5 22.5t19.5 10.5h172q15 0 27.5 -9.5t17.5 -23.5l457 -1368q3 -12 -5 -22.5t-20 -10.5h-174q-15 0 -28 9t-17 24z" />
<glyph unicode="]" horiz-adv-x="552" d="M492 1563v-1948q0 -13 -11 -24t-24 -11h-361q-14 0 -24.5 11t-10.5 24v149q0 14 10.5 24.5t24.5 10.5h129v1579h-129q-14 0 -24.5 11t-10.5 24v150q0 13 10.5 23.5t24.5 10.5h361q14 0 24.5 -10.5t10.5 -23.5z" />
<glyph unicode="^" horiz-adv-x="1247" d="M295 819l-105 94q-11 9 -12 24t8 26l404 489q13 16 35 16q21 0 37 -16l399 -489q9 -11 8 -26t-12 -24l-105 -96q-11 -9 -25.5 -8t-23.5 12l-278 316l-281 -314q-9 -11 -23.5 -12t-25.5 8z" />
<glyph unicode="_" horiz-adv-x="862" d="M10 -143v102q0 13 11 24t24 11h772q13 0 24 -11t11 -24v-102q0 -13 -11 -24t-24 -11h-772q-13 0 -24 11t-11 24z" />
<glyph unicode="`" horiz-adv-x="1044" d="M365 1589l276 -215q11 -8 13 -22.5t-7 -26.5l-65 -94q-9 -12 -23.5 -15t-26.5 5l-299 184q-11 8 -14 21.5t6 25.5l92 129q7 12 22.5 14t25.5 -6z" />
<glyph unicode="a" horiz-adv-x="1122" d="M209 950q200 92 371 92q73 0 131 -13.5t97 -35.5t67.5 -57t44 -70t24.5 -83t11.5 -86.5t2.5 -90.5v-571q0 -14 -10.5 -24.5t-23.5 -10.5h-123q-15 0 -27.5 9.5t-17.5 23.5l-11 33q-95 -80 -243 -86q-91 -4 -161.5 17t-110.5 54.5t-65 80.5t-33.5 87.5t-8.5 81.5 q0 340 438 340q54 0 119 -14q0 101 -32 134.5t-105 33.5q-34 0 -103.5 -16.5t-138.5 -43.5q-14 -5 -27.5 1.5t-19.5 19.5l-61 145q-6 14 -1 27.5t17 21.5zM680 301v111q-85 22 -127 22q-166 0 -166 -119q0 -44 35.5 -69t85.5 -25q54 0 102.5 25t69.5 55z" />
<glyph unicode="b" horiz-adv-x="1257" d="M625 1042q119 0 211 -34t147 -87t90.5 -125t48.5 -141t13 -143q0 -70 -14 -139.5t-49.5 -141.5t-89 -126t-141 -88.5t-196.5 -34.5q-66 0 -145.5 26t-122.5 64l-12 -39q-5 -14 -18 -23.5t-28 -9.5h-120q-13 0 -24 11t-11 24v1366q0 13 11 24t24 11h207q13 0 23.5 -10.5 t10.5 -24.5v-393q72 34 185 34zM625 231q60 0 105 22t69 53t38.5 72.5t18.5 72t4 61.5q0 36 -4.5 68.5t-20.5 73.5t-42 70.5t-73.5 50t-111.5 20.5q-36 0 -87 -15t-81 -35v-434q22 -31 74 -55.5t111 -24.5z" />
<glyph unicode="c" horiz-adv-x="1134" d="M885 328l116 -142q9 -10 8.5 -25.5t-10.5 -25.5q-159 -149 -360 -149q-113 0 -204 34t-148 87.5t-95 124t-53.5 139t-15.5 137.5q0 74 13.5 143t49.5 141.5t91.5 126t147.5 87.5t210 34q212 0 383 -178q10 -10 10.5 -25.5t-8.5 -25.5l-115 -125q-9 -10 -23 -10.5t-24 8.5 q-50 45 -110 71.5t-113 26.5q-112 0 -174 -80t-62 -188q0 -121 70 -191.5t168 -70.5q104 0 199 80q10 8 25 7t24 -11z" />
<glyph unicode="d" horiz-adv-x="1257" d="M852 1436h207q13 0 24 -11t11 -24v-1366q0 -13 -11 -24t-24 -11h-121q-15 0 -27.5 9.5t-17.5 23.5l-12 39q-43 -38 -123 -64t-146 -26q-109 0 -196.5 34.5t-141 88.5t-88.5 126t-49 141.5t-14 139.5q0 74 13 143t48.5 141t90.5 125t147 87t211 34q112 0 184 -34v393 q0 13 10.5 24t24.5 11zM817 311v434q-30 20 -81 35t-87 15q-64 0 -111.5 -20.5t-73.5 -50t-42 -70.5t-20.5 -73.5t-4.5 -68.5q0 -30 4 -61t18.5 -72.5t38.5 -72.5t69.5 -53t105.5 -22q59 0 110 24.5t74 55.5z" />
<glyph unicode="e" horiz-adv-x="1120" d="M1028 598q0 -48 -6 -98q0 -15 -11 -25t-26 -10h-606q13 -97 71.5 -161t153.5 -64q118 0 227 71q12 8 26.5 6t23.5 -14l94 -129q9 -12 7 -27t-13 -24q-176 -135 -365 -135q-112 0 -202.5 34t-147 87.5t-94.5 124.5t-53 140.5t-15 139.5q0 69 15 137.5t53 139.5t94.5 125 t147 88t202.5 34q201 0 312.5 -119t111.5 -321zM387 629h367q-4 160 -150 162q-83 0 -137.5 -44t-79.5 -118z" />
<glyph unicode="f" horiz-adv-x="770" d="M778 1341l-57 -153q-4 -13 -17.5 -19.5t-27.5 -1.5q-94 33 -164 33q-45 0 -75.5 -25.5t-30.5 -82.5v-68h155q13 0 24 -11t11 -24v-170q0 -13 -11 -24t-24 -11h-155v-749q0 -13 -11 -24t-24 -11h-209q-14 0 -24.5 11t-10.5 24v749h-72q-13 0 -24 11t-11 24v170q0 13 11 24 t24 11h72v76q0 170 103.5 259t265.5 89q129 0 264 -59q12 -6 17.5 -20t0.5 -28z" />
<glyph unicode="g" horiz-adv-x="1198" d="M502 162q133 6 232.5 -6.5t161 -38t99.5 -66t52 -85.5t14 -103q0 -25 -6.5 -57t-34 -83.5t-73 -91.5t-134.5 -70t-207 -30q-109 0 -195.5 22t-139 56.5t-87 80t-48 88.5t-13.5 87q2 54 29.5 112.5t78.5 92.5q-84 67 -84 190q0 51 30 100t77 72q-72 78 -72 215 q0 55 12.5 108.5t43 107.5t76 94.5t118 66t162.5 25.5q121 0 194 -41l121 112q9 10 24 10t25 -10l113 -112q11 -10 11 -25.5t-11 -24.5l-119 -129q28 -41 43 -93.5t15 -92.5q0 -53 -13 -106t-44.5 -106t-77.5 -93.5t-118.5 -66t-162.5 -25.5q-93 0 -156 24q-19 -2 -33 -13 t-14 -24q0 -38 23.5 -56t87.5 -15zM594 801q-39 0 -66.5 -17t-40 -44t-17.5 -49.5t-5 -43.5q0 -19 4 -40t16 -48.5t40 -45t69 -17.5q39 0 67 17.5t39.5 45t16 48.5t4.5 40t-4.5 40.5t-16 49.5t-39.5 46t-67 18zM594 -258q68 0 113.5 13.5t63 35t23 37t5.5 31.5q0 96 -205 96 q-122 0 -165.5 -25t-43.5 -67q0 -17 8.5 -34.5t28.5 -38t64.5 -34t107.5 -14.5z" />
<glyph unicode="h" horiz-adv-x="1196" d="M406 0h-207q-13 0 -24 11t-11 24v1364q0 13 11 24t24 11h207q13 0 23.5 -10.5t10.5 -24.5v-412q87 53 197 53q82 0 148 -16t110.5 -42.5t78 -67t52 -82t29.5 -96.5t14.5 -102t3.5 -106v-493q0 -13 -10.5 -24t-24.5 -11h-207q-13 0 -23.5 10.5t-10.5 24.5v493q0 44 -3 77 t-15 71t-32 61.5t-57 39t-88 14.5t-95.5 -24.5t-66.5 -53.5v-678q0 -14 -10.5 -24.5t-23.5 -10.5z" />
<glyph unicode="i" horiz-adv-x="641" d="M459 989v-954q0 -13 -10.5 -24t-24.5 -11h-209q-13 0 -24 11t-11 24v954q0 13 11 24t24 11h209q14 0 24.5 -11t10.5 -24zM164 1358q0 66 45.5 112t112.5 46q66 0 110.5 -46t44.5 -112q0 -67 -44.5 -111.5t-110.5 -44.5q-68 0 -113 44.5t-45 111.5z" />
<glyph unicode="j" horiz-adv-x="600" d="M-119 -133q80 -41 142 -41q114 0 114 154v1009q0 13 10.5 24t24.5 11h213q13 0 24 -11t11 -24v-993v-23q0 -24 -2 -49t-10.5 -65.5t-22.5 -75.5t-42 -73t-65 -64.5t-94.5 -44t-128.5 -17.5q-81 0 -161.5 30t-133.5 69q-12 9 -14 24t6 27l80 121q17 26 49 12zM123 1360 q0 67 44.5 112.5t111.5 45.5q66 0 111.5 -46t45.5 -112q0 -68 -45 -112t-112 -44q-68 0 -112 43.5t-44 112.5z" />
<glyph unicode="k" horiz-adv-x="1230" d="M836 25l-396 434v-424q0 -14 -10.5 -24.5t-23.5 -10.5h-207q-13 0 -24 11t-11 24v1364q0 13 11 24t24 11h207q13 0 23.5 -10.5t10.5 -24.5v-815l369 413q24 27 57 27h252q9 0 13 -9.5t-3 -15.5l-438 -467l471 -507q7 -6 3 -15.5t-13 -9.5h-256q-30 0 -59 25z" />
<glyph unicode="l" horiz-adv-x="608" d="M444 1401v-1366q0 -14 -10.5 -24.5t-23.5 -10.5h-211q-13 0 -24 11t-11 24v1366q0 13 11 24t24 11h211q13 0 23.5 -10.5t10.5 -24.5z" />
<glyph unicode="m" horiz-adv-x="1751" d="M440 705v-670q0 -14 -10.5 -24.5t-23.5 -10.5h-207q-13 0 -24 11t-11 24v954q0 13 11 24t24 11h118q15 0 27.5 -9.5t17.5 -23.5l15 -45q53 45 122 69.5t136 24.5q207 0 301 -102q130 102 287 102q113 0 192 -32.5t120 -76.5t63 -121t26 -134t4 -148v-493q0 -13 -11 -24 t-24 -11h-213q-13 0 -23.5 10.5t-10.5 24.5v520q2 27 0.5 55t-4 54.5t-12 50t-23.5 41.5t-38 28.5t-57 10.5q-54 0 -99.5 -26t-74.5 -62v-672q0 -14 -10.5 -24.5t-23.5 -10.5h-211q-13 0 -24 11t-11 24v520q1 42 0 67t-7.5 62t-19.5 58t-40 37t-66 16q-60 0 -108.5 -26 t-76.5 -64z" />
<glyph unicode="n" horiz-adv-x="1198" d="M440 705v-670q0 -14 -10.5 -24.5t-23.5 -10.5h-207q-13 0 -24 11t-11 24v954q0 13 11 24t24 11h118q15 0 27.5 -9.5t17.5 -23.5l15 -41q111 90 258 90q81 0 146.5 -16t111 -43t79 -67.5t53 -83t31 -96.5t15.5 -101.5t4 -104.5v-493q0 -13 -10.5 -24t-24.5 -11h-213 q-13 0 -23.5 10.5t-10.5 24.5v493q0 39 -2.5 70.5t-13 70t-27.5 64t-49 43t-76 17.5q-60 0 -109 -25.5t-76 -62.5z" />
<glyph unicode="o" horiz-adv-x="1265" d="M633 1044q113 0 203.5 -35t146.5 -90t93 -127.5t52 -141.5t15 -138q0 -71 -15 -140.5t-52 -141t-93 -125.5t-146.5 -88.5t-203.5 -34.5t-203.5 34.5t-146.5 88.5t-93 125.5t-52 141t-15 140.5q0 69 15 138t52 141.5t93 127.5t146.5 90t203.5 35zM633 229q58 0 102.5 23 t68.5 56t39 75t19 72.5t4 56.5t-4 57t-19 73t-39 75t-68.5 56.5t-102.5 23.5t-103 -23.5t-69 -56.5t-39.5 -75t-20 -73t-4.5 -57t4.5 -57t20 -72.5t39.5 -74.5t69 -56t103 -23z" />
<glyph unicode="p" horiz-adv-x="1257" d="M659 -16q-47 0 -75.5 1.5t-69 9.5t-74.5 23v-393q0 -14 -10.5 -24.5t-23.5 -10.5h-207q-13 0 -24 11t-11 24v1366q0 13 11 24t24 11h120q15 0 28 -9.5t18 -23.5l12 -39q43 38 122.5 64t145.5 26q109 0 196.5 -34.5t141 -88.5t89 -126t49.5 -141.5t14 -139.5 q0 -72 -12.5 -139t-45.5 -138t-84.5 -124t-137.5 -88.5t-196 -40.5zM625 795q-59 0 -111 -24.5t-74 -55.5v-434q30 -20 81 -35t87 -15q64 0 111.5 20.5t73.5 50t42 70.5t20.5 73.5t4.5 68.5q0 31 -4 61.5t-18.5 72t-38.5 72.5t-69 53t-105 22z" />
<glyph unicode="q" horiz-adv-x="1257" d="M598 -16q-93 4 -168 29t-125.5 66.5t-87 92t-56.5 110.5t-29 116.5t-9 115.5q0 70 14 139.5t49 141.5t88.5 126t141 88.5t196.5 34.5q66 0 146 -26t123 -64l12 39q5 14 17.5 23.5t27.5 9.5h121q13 0 24 -11t11 -24v-1366q0 -13 -11 -24t-24 -11h-207q-14 0 -24.5 11 t-10.5 24v393q-35 -17 -81 -24t-138 -10zM633 795q-60 0 -105.5 -22t-69.5 -53t-38.5 -72.5t-18.5 -72.5t-4 -61q0 -36 4.5 -68.5t20.5 -73.5t42 -70.5t73.5 -50t111.5 -20.5q36 0 87 15t81 35v434q-23 31 -74 55.5t-110 24.5z" />
<glyph unicode="r" horiz-adv-x="849" d="M799 987l-60 -188q-10 -30 -45 -27q-54 8 -86 8q-118 0 -168 -84v-661q0 -14 -10.5 -24.5t-23.5 -10.5h-207q-13 0 -24 11t-11 24v954q0 13 11 24t24 11h118q35 0 48 -33l12 -30q116 75 262 75q60 0 135 -10q13 -1 21.5 -14t3.5 -25z" />
<glyph unicode="s" horiz-adv-x="1048" d="M424 731q0 -25 36 -43t115 -43q45 -14 69 -22.5t67 -26.5t68 -34.5t56.5 -44t48.5 -57.5t29.5 -72t12.5 -91q0 -138 -109 -225.5t-276 -87.5q-199 0 -387 108q-13 6 -18 20.5t3 26.5l78 156q7 12 21 16t26 -2q163 -78 266 -78q46 0 79.5 18t33.5 46q0 21 -12.5 38 t-39.5 30.5t-51 21.5t-67 21q-40 12 -64 20.5t-61.5 24.5t-61 31t-51 40t-43 52.5t-26 65.5t-10.5 83q0 147 95.5 232t252.5 85q169 0 366 -92q12 -6 17.5 -19.5t-0.5 -25.5l-76 -166q-6 -12 -19.5 -17t-27.5 1q-103 46 -227 65q-50 8 -81.5 -7.5t-31.5 -47.5z" />
<glyph unicode="t" horiz-adv-x="757" d="M178 778h-72q-13 0 -23.5 10.5t-10.5 24.5v176q0 14 10.5 24.5t23.5 10.5h72l17 166q2 15 12.5 25t25.5 10h189q14 0 24.5 -10.5t10.5 -24.5v-166h157q14 0 24.5 -11t10.5 -24v-176q0 -13 -10.5 -24t-24.5 -11h-157v-481q0 -66 57 -66q34 0 113 23q14 3 26 -5.5t13 -21.5 l32 -155q3 -15 -4 -28t-20 -17q-152 -39 -252 -39q-63 0 -110.5 22.5t-72 53.5t-39.5 73t-18.5 71t-3.5 58v512z" />
<glyph unicode="u" horiz-adv-x="1198" d="M758 319v670q0 13 11 24t24 11h206q13 0 24 -11t11 -24v-954q0 -13 -11 -24t-24 -11h-118q-15 0 -28 9t-17 24l-15 41q-111 -90 -258 -90q-81 0 -146.5 16t-111 43t-79 67.5t-53 83t-31 96.5t-15.5 101.5t-4 104.5v493q0 13 10.5 24t24.5 11h213q13 0 24 -11t11 -24v-493 q0 -39 2.5 -70.5t12.5 -70t27.5 -64t49 -43t75.5 -17.5q60 0 109 25.5t76 62.5z" />
<glyph unicode="v" horiz-adv-x="1155" d="M578 516l202 475q6 15 20 24t29 9h236q12 0 18.5 -10t1.5 -21l-475 -987q-10 -20 -35 -20q-22 0 -32 20l-473 987q-5 11 1.5 21t18.5 10h236q15 0 29 -9t20 -24z" />
<glyph unicode="w" horiz-adv-x="1708" d="M883 1018l250 -526l206 499q6 15 20.5 24t29.5 9h223q12 0 18.5 -10.5t1.5 -22.5l-442 -989q-7 -20 -31 -20q-20 0 -31 18l-274 504l-274 -504q-11 -18 -33 -18t-29 20l-442 989q-5 12 1.5 22.5t18.5 10.5h223q16 0 30 -9t18 -24l208 -499l250 526q7 18 29 18t29 -18z " />
<glyph unicode="x" horiz-adv-x="1032" d="M952 993l-295 -481l295 -481q6 -11 0.5 -21t-16.5 -10h-248q-34 0 -51 31l-121 233l-121 -233q-17 -31 -51 -31h-248q-12 0 -17 10t1 21l293 481l-293 481q-6 11 -1 21t17 10h248q34 0 51 -31l121 -233l121 233q17 31 51 31h248q11 0 16.5 -10t-0.5 -21z" />
<glyph unicode="y" horiz-adv-x="1247" d="M293 -375l188 457l-405 909q-5 12 1.5 22.5t18.5 10.5h248q15 0 29 -9t18 -24l234 -583l237 583q4 15 18 24t29 9h242q12 0 18.5 -10.5t1.5 -22.5l-579 -1366q-6 -15 -20 -24t-29 -9h-228q-12 0 -19 10.5t-3 22.5z" />
<glyph unicode="z" horiz-adv-x="1042" d="M137 795v194q0 13 10.5 24t24.5 11h715q13 0 24 -11t11 -24q0 -31 -17 -65l-358 -660h348q13 0 24 -11t11 -24v-194q0 -13 -11 -24t-24 -11h-729q-14 0 -24.5 11t-10.5 24v16q0 34 16 66l353 643h-328q-14 0 -24.5 11t-10.5 24z" />
<glyph unicode="{" horiz-adv-x="659" d="M514 1591h49q13 0 24 -10.5t11 -24.5v-147q0 -13 -11 -24t-24 -11h-6h-16.5t-25.5 -8t-32.5 -23t-22.5 -49.5t-11 -83.5v-440q0 -53 -32 -103.5t-71 -72.5q40 -26 71.5 -76t31.5 -104v-441q0 -44 10.5 -76.5t24.5 -48.5t31.5 -25.5t27 -11t16.5 -1.5h4q13 0 24 -11 t11 -24v-148q0 -13 -11 -24t-24 -11h-49q-7 0 -21.5 1.5t-48 9.5t-65 21t-68.5 41t-64 65t-45 96.5t-18 132.5v442q0 41 -20.5 67.5t-46.5 31.5h-21q-14 0 -24.5 11t-10.5 24v118q0 13 10.5 24t24.5 11h21q26 3 46.5 28.5t20.5 67.5v443q0 72 18 131t45 96t64 64.5t68.5 41 t65 21t48 9t21.5 1.5z" />
<glyph unicode="|" horiz-adv-x="454" d="M297 -412h-139q-14 0 -24.5 11t-10.5 24v1921q0 14 10.5 24.5t24.5 10.5h139q13 0 24 -10.5t11 -24.5v-1921q0 -13 -11 -24t-24 -11z" />
<glyph unicode="}" horiz-adv-x="659" d="M96 1591h49q7 0 21.5 -1.5t48 -9t65 -21t68.5 -41t64 -64.5t45 -96t18 -131v-443q0 -42 21 -67.5t47 -28.5h20q13 0 24 -11t11 -24v-118q0 -13 -11 -24t-24 -11h-20q-26 -5 -47 -31.5t-21 -67.5v-442q0 -73 -18 -132.5t-45 -96.5t-64 -65t-68.5 -41t-65 -21t-48 -9.5 t-21.5 -1.5h-49q-14 0 -24.5 11t-10.5 24v148q0 13 10.5 24t24.5 11h4q7 0 16.5 1.5t27.5 11t32 25.5t24.5 48.5t10.5 76.5v441q0 54 31 104t71 76q-39 22 -70.5 72.5t-31.5 103.5v440q0 47 -10 81t-22 49.5t-30 24t-26.5 9t-18.5 0.5h-2h-6q-14 0 -24.5 11t-10.5 24v147 q0 14 10.5 24.5t24.5 10.5z" />
<glyph unicode="~" horiz-adv-x="1290" d="M270 442l-118 82q-12 9 -15 23t4 28q143 232 346 232q35 0 73 -12t56.5 -21.5t59.5 -32.5q84 -49 135 -49q68 0 156 109q9 11 24 13t27 -7l121 -88q12 -9 15 -24t-5 -27q-70 -119 -158.5 -178.5t-181.5 -59.5q-95 0 -213 74q-88 45 -117 45q-73 0 -157 -100 q-26 -26 -52 -7z" />
<glyph unicode="&#xa1;" horiz-adv-x="720" d="M502 168v-541q0 -13 -11 -24t-24 -11h-209q-14 0 -24.5 11t-10.5 24v541l35 399q1 15 12.5 25t26.5 10h131q15 0 26 -10t11 -25zM205 887q0 65 44 111t111 46q66 0 111 -46t45 -111q0 -67 -45 -112.5t-111 -45.5q-67 0 -111 45t-44 113z" />
<glyph unicode="&#xa2;" horiz-adv-x="1134" d="M885 328l116 -142q9 -10 8.5 -25.5t-10.5 -25.5q-120 -113 -262 -139v-139q0 -13 -10.5 -24t-24.5 -11h-139q-13 0 -24 11t-11 24v139q-88 15 -159.5 54.5t-116 91.5t-74.5 116.5t-42.5 126t-12.5 123.5q0 66 11 129t39.5 129.5t72.5 119t116.5 92.5t165.5 54v125 q0 13 11 24t24 11h139q14 0 24.5 -11t10.5 -24v-127q150 -34 281 -168q10 -10 10.5 -25.5t-8.5 -25.5l-115 -125q-9 -10 -23 -10.5t-24 8.5q-50 45 -110 71.5t-113 26.5q-112 0 -174 -80t-62 -188q0 -121 70 -191.5t168 -70.5q104 0 199 80q10 8 25 7t24 -11z" />
<glyph unicode="&#xa3;" horiz-adv-x="1323" d="M948 1341l-57 -153q-4 -13 -17.5 -19.5t-27.5 -1.5q-94 33 -164 33q-45 0 -76 -25.5t-31 -82.5v-68h156q13 0 24 -11t11 -24v-170q0 -13 -11 -24t-24 -11h-156v-444q30 -6 113.5 -48t136.5 -42q34 0 83.5 27.5t92.5 82.5q9 12 23.5 14.5t26.5 -5.5l120 -88 q12 -9 15.5 -24.5t-4.5 -27.5q-70 -116 -167 -174.5t-192 -58.5q-48 0 -102 18.5t-94 40t-89.5 40t-88.5 18.5q-73 0 -158 -101q-25 -25 -51 -8l-123 82q-12 8 -15 21.5t4 27.5q81 135 191 195v454h-72q-13 0 -24 11t-11 24v170q0 13 11 24t24 11h72v76q0 170 103.5 259 t265.5 89q129 0 264 -59q12 -6 17.5 -20t0.5 -28z" />
<glyph unicode="&#xa4;" horiz-adv-x="1359" d="M1096 584q0 -117 -41 -207l157 -158q10 -11 10 -25t-10 -24l-104 -102q-10 -10 -24 -10t-25 10l-148 147q-103 -61 -231 -61q-135 0 -231 59l-148 -145q-11 -10 -25 -10t-24 10l-105 104q-11 10 -11 24t11 25l162 156q-45 90 -45 207q0 126 51 225l-165 168 q-10 11 -10 25t10 24l104 107q10 11 24 11t25 -11l166 -168q93 49 211 49q123 0 215 -53l164 172q11 9 25 9t24 -9l104 -107q10 -10 10 -24t-10 -25l-170 -170q54 -100 54 -223zM680 422q40 0 68.5 19t41.5 47.5t18 52t5 43.5t-5 43.5t-18 53t-41.5 48.5t-68.5 19 q-41 0 -69.5 -19t-41 -48.5t-17.5 -53t-5 -43.5t5 -43.5t17.5 -52.5t41 -47.5t69.5 -18.5z" />
<glyph unicode="&#xa5;" horiz-adv-x="1384" d="M1014 117h-178v-82q0 -13 -11 -24t-24 -11h-219q-14 0 -24.5 11t-10.5 24v82h-180q-13 0 -24 10.5t-11 24.5v137q0 13 11 24t24 11h180v127h-180q-14 0 -24.5 10.5t-10.5 23.5v142q0 13 11 24t24 11h163l-450 741q-6 11 -1 21t17 10h248q32 0 53 -31l293 -490l295 490 q21 31 53 31h250q11 0 17 -10.5t0 -20.5l-457 -741h166q14 0 24.5 -11t10.5 -24v-142q0 -13 -10.5 -23.5t-24.5 -10.5h-178v-127h178q14 0 24.5 -11t10.5 -24v-137q0 -14 -10.5 -24.5t-24.5 -10.5z" />
<glyph unicode="&#xa6;" horiz-adv-x="454" d="M332 350v-723q0 -13 -11 -24t-24 -11h-139q-14 0 -24.5 11t-10.5 24v723q0 14 10.5 24.5t24.5 10.5h139q13 0 24 -10.5t11 -24.5zM332 1550v-721q0 -13 -10.5 -23.5t-24.5 -10.5h-139q-14 0 -24.5 10.5t-10.5 23.5v721q0 14 10.5 24.5t24.5 10.5h139q13 0 24 -10.5 t11 -24.5z" />
<glyph unicode="&#xa7;" horiz-adv-x="1234" d="M184 -197l109 140q9 10 24 12t27 -6q171 -115 270 -115q57 0 101.5 30.5t44.5 84.5q0 95 -225 207v2q-147 64 -238.5 168t-91.5 241q0 80 35.5 146t83.5 110q-105 128 -105 256q0 64 25.5 127t74.5 118.5t132 89.5t186 34q188 0 387 -137q12 -9 14.5 -23t-6.5 -26 l-102 -152q-20 -27 -51 -10q-145 82 -232 88q-72 0 -110 -30t-41 -71q1 -44 52 -91.5t128 -84.5q82 -40 145.5 -79.5t123.5 -92.5t93 -118t33 -138q0 -79 -39 -148t-92 -118q113 -131 113 -274q0 -109 -56.5 -195t-150 -131t-205.5 -45q-243 0 -451 182q-11 9 -12.5 24 t6.5 25zM473 584q0 -34 16.5 -63.5t48 -53t59.5 -40.5t69 -37.5t59 -31.5q43 50 54 85q4 14 5 28q0 31 -31.5 63t-68.5 52t-90.5 47t-73.5 39q-47 -43 -47 -88z" />
<glyph unicode="&#xa8;" horiz-adv-x="1191" d="M203 1366q0 66 45 112t112 46q66 0 111 -46t45 -112q0 -67 -45 -111.5t-111 -44.5q-68 0 -112.5 44.5t-44.5 111.5zM672 1366q0 66 45 112t112 46q66 0 111 -46t45 -112q0 -67 -45 -111.5t-111 -44.5q-68 0 -112.5 44.5t-44.5 111.5z" />
<glyph unicode="&#xa9;" horiz-adv-x="1200" d="M600 1444q215 0 366.5 -151.5t151.5 -366.5t-151.5 -366.5t-366.5 -151.5q-98 0 -192 40t-166 108t-116 166t-44 208q0 131 67.5 249t188 191.5t262.5 73.5zM600 557q155 0 262 107t107 262t-107 262.5t-262 107.5t-263 -107.5t-108 -262.5t108 -262t263 -107zM481 922 q0 64 37 103.5t90 39.5q58 0 111 -45q10 -9 24.5 -9t24.5 9l45 49q10 10 10.5 25.5t-8.5 25.5q-91 94 -207 94q-63 0 -114.5 -19.5t-84.5 -49.5t-55 -69.5t-31.5 -78t-9.5 -75.5q0 -39 9.5 -78t31.5 -78.5t55 -70t84.5 -49.5t114.5 -19q116 0 207 94q9 10 8.5 25.5 t-10.5 25.5l-43 45q-23 20 -51 2q-52 -41 -111 -41q-53 0 -90 39.5t-37 104.5z" />
<glyph unicode="&#xaa;" horiz-adv-x="823" d="M420 1452q75 0 128.5 -20t82.5 -49t45 -75.5t20 -85.5t4 -94v-413q0 -14 -10.5 -24.5t-23.5 -10.5h-74q-15 0 -27.5 9.5t-17.5 23.5l-4 16q-68 -60 -181 -63q-68 -3 -120 12t-81.5 40t-48 59.5t-24.5 64.5t-6 61q0 252 324 252q34 0 88 -12q0 75 -23.5 100t-77.5 25 q-67 0 -170 -41q-14 -5 -27.5 1t-19.5 19l-39 90q-6 13 -1 27.5t18 21.5q116 57 266 66zM494 903v82q-61 16 -95 16q-123 0 -123 -88q0 -32 26.5 -50.5t64.5 -18.5q41 0 77 18t50 41z" />
<glyph unicode="&#xab;" horiz-adv-x="1132" d="M360 524l211 -266q9 -11 8 -25.5t-12 -23.5l-96 -86q-10 -9 -25.5 -8.5t-25.5 10.5l-350 375q-9 14 -9 22q0 12 9 25l350 373q11 9 25.5 10t25.5 -8l96 -86q11 -9 12 -24t-8 -26zM838 524l211 -266q9 -11 7.5 -25.5t-12.5 -23.5l-96 -86q-10 -9 -25.5 -8.5t-25.5 10.5 l-350 375q-8 12 -8 22q0 13 8 25l350 373q11 9 25.5 10t25.5 -8l96 -86q11 -9 12.5 -24t-7.5 -26z" />
<glyph unicode="&#xac;" horiz-adv-x="1284" d="M1120 825v-614q0 -13 -11 -24t-24 -11h-383q-13 0 -23.5 10.5t-10.5 24.5v225h-469q-13 0 -24 11t-11 24v354q0 13 11 24t24 11h886q13 0 24 -11t11 -24z" />
<glyph unicode="&#xad;" horiz-adv-x="819" d="M160 545h508q13 0 23.5 -10.5t10.5 -24.5v-168q0 -14 -10.5 -24.5t-23.5 -10.5h-508q-14 0 -24.5 10.5t-10.5 24.5v168q0 14 10.5 24.5t24.5 10.5z" />
<glyph unicode="&#xae;" horiz-adv-x="1200" d="M600 1444q215 0 366.5 -151.5t151.5 -366.5t-151.5 -366.5t-366.5 -151.5q-98 0 -192 40t-166 108t-116 166t-44 208q0 131 67.5 249t188 191.5t262.5 73.5zM600 557q155 0 262 107t107 262t-107 262.5t-262 107.5t-263 -107.5t-108 -262.5t108 -262t263 -107zM549 827 v-114q0 -13 -10.5 -24t-24.5 -11h-70q-13 0 -23.5 10.5t-10.5 24.5v442q0 14 10.5 24.5t23.5 10.5h170q52 0 91.5 -17.5t60.5 -46t31 -58t10 -58.5q0 -41 -24.5 -83.5t-59.5 -66.5l86 -151q5 -11 -0.5 -21t-17.5 -10h-95q-34 0 -51 31l-63 118h-33zM549 965h72 q24 1 34.5 15.5t10.5 29.5q0 16 -11.5 31.5t-38.5 15.5h-67v-92z" />
<glyph unicode="&#xaf;" horiz-adv-x="1056" d="M266 1421h547q13 0 24 -10.5t11 -24.5v-129q0 -13 -10.5 -23.5t-24.5 -10.5h-547q-14 0 -24.5 10.5t-10.5 23.5v129q0 14 10.5 24.5t24.5 10.5z" />
<glyph unicode="&#xb0;" horiz-adv-x="675" d="M338 901q-116 0 -196.5 80.5t-80.5 196.5q0 115 80.5 195.5t196.5 80.5q115 0 195.5 -78.5t80.5 -197.5q0 -115 -81 -196t-195 -81zM338 1069q43 0 73.5 30.5t30.5 78.5q0 45 -31 74.5t-73 29.5q-44 0 -77.5 -31.5t-33.5 -72.5q0 -48 32.5 -78.5t78.5 -30.5z" />
<glyph unicode="&#xb1;" horiz-adv-x="1132" d="M199 236h735q14 0 24.5 -11t10.5 -24v-144q0 -13 -10.5 -23.5t-24.5 -10.5h-735q-14 0 -24.5 10.5t-10.5 23.5v144q0 13 11 24t24 11zM455 408v170h-256q-14 0 -24.5 10.5t-10.5 23.5v162q0 14 11 24.5t24 10.5h256v256q0 14 10.5 24.5t23.5 10.5h164q13 0 24 -11t11 -24 v-256h256q14 0 24.5 -10.5t10.5 -24.5v-162q0 -13 -10.5 -23.5t-24.5 -10.5h-256v-170q0 -14 -11 -24.5t-24 -10.5h-164q-13 0 -23.5 10.5t-10.5 24.5z" />
<glyph unicode="&#xb2;" horiz-adv-x="624" d="M147 1427l-61 58q-10 10 -10.5 25.5t8.5 25.5q107 113 235 113q105 0 164.5 -58.5t59.5 -154.5q0 -79 -82 -193l-84 -117h121q14 0 24 -10t10 -24v-91q0 -13 -10 -23.5t-24 -10.5h-379q-11 0 -18 7t-7 17q0 24 15 45l215 310q8 12 14.5 22.5t10.5 18.5t6.5 13.5t3.5 12 t1 8v7.5v6q0 17 -13.5 32t-35.5 15q-48 0 -112 -56q-29 -21 -52 2z" />
<glyph unicode="&#xb3;" horiz-adv-x="577" d="M516 1434q0 -33 -17 -72t-46 -64q63 -50 63 -131q0 -31 -10.5 -64t-35 -68.5t-74 -58t-117.5 -22.5q-114 0 -211 78q-12 9 -13 24t8 25l56 58q9 11 23 12t26 -8q48 -31 111 -31q29 0 50 15.5t21 39.5q0 31 -20.5 47.5t-50.5 16.5h-78q-13 0 -24 10.5t-11 24.5v67 q0 13 11 24t24 11h78q29 0 50 17.5t21 48.5q0 25 -21 40t-50 15q-49 0 -109 -37q-12 -8 -27 -6t-24 12l-51 58q-9 10 -8.5 25t10.5 24q93 82 209 82q68 0 117.5 -22t74 -57t35 -68t10.5 -66z" />
<glyph unicode="&#xb4;" horiz-adv-x="1044" d="M315 1374l277 215q10 8 24 6t23 -14l92 -129q7 -12 5 -25.5t-13 -21.5l-299 -184q-12 -8 -26 -5t-23 15l-66 94q-9 12 -7 26.5t13 22.5z" />
<glyph unicode="&#xb6;" horiz-adv-x="1503" d="M82 1006q0 57 12 113t42.5 114.5t76 102.5t120 72t167.5 28h805q13 0 23.5 -10.5t10.5 -24.5v-152q0 -14 -10.5 -24.5t-23.5 -10.5h-103v-1587q0 -13 -11 -24t-24 -11h-196q-13 0 -24 11t-11 24v1587h-180v-1587q0 -13 -11 -24t-24 -11h-197q-14 0 -24.5 11t-10.5 24v948 q-90 1 -162 30t-117 73t-74.5 102.5t-41.5 114t-12 111.5z" />
<glyph unicode="&#xb7;" horiz-adv-x="581" d="M123 612q0 72 47 119t119 47q71 0 120.5 -47.5t49.5 -118.5q0 -70 -49.5 -120t-120.5 -50t-118.5 49.5t-47.5 120.5z" />
<glyph unicode="&#xb8;" horiz-adv-x="1134" d="M668 -176h-35q-19 0 -31 12q-12 15 -12 33v168q0 13 11 24t24 11h98q13 0 24 -11t11 -24v-94q100 -3 148 -63t48 -124q0 -109 -69 -166t-170 -57q-94 0 -187 39q-13 6 -17.5 20.5t1.5 26.5l33 72q6 13 19.5 19t27.5 1q53 -22 102 -22q29 0 51.5 20.5t24.5 46.5 q2 29 -23.5 48.5t-78.5 19.5z" />
<glyph unicode="&#xb9;" horiz-adv-x="466" d="M375 1602v-601q0 -13 -10.5 -23.5t-24.5 -10.5h-111q-13 0 -23.5 10.5t-10.5 23.5v392l-54 -29q-12 -7 -26.5 -3.5t-22.5 15.5l-33 56q-7 14 -4 28t15 23l186 133q30 20 63 20h21q14 0 24.5 -10.5t10.5 -23.5z" />
<glyph unicode="&#xba;" horiz-adv-x="774" d="M387 1446q68 0 122 -21t87.5 -53.5t56 -76t31 -85t8.5 -82.5q0 -43 -8.5 -84.5t-31 -84.5t-56 -75t-87.5 -52.5t-122 -20.5t-122 20.5t-87.5 52.5t-56 75t-31 84.5t-8.5 84.5q0 41 8.5 82.5t31 85t56 76t87.5 53.5t122 21zM387 1026q27 0 46 11.5t27.5 30t11.5 33t3 27.5 t-3 27t-11.5 32.5t-27.5 30t-46 11.5t-46 -11.5t-27.5 -30t-11.5 -32.5t-3 -27t3 -27.5t11.5 -33t27.5 -30t46 -11.5zM156 659h460q14 0 24.5 -10.5t10.5 -23.5v-146q0 -13 -10.5 -24t-24.5 -11h-460q-14 0 -24.5 11t-10.5 24v146q0 13 10.5 23.5t24.5 10.5z" />
<glyph unicode="&#xbb;" horiz-adv-x="1132" d="M561 258l211 266l-211 262q-9 11 -8 26t12 24l97 86q11 9 25.5 8t25.5 -10l348 -373q10 -10 10 -25q0 -10 -8 -22l-350 -375q-10 -10 -25.5 -10.5t-25.5 8.5l-97 86q-11 9 -12 23.5t8 25.5zM84 258l211 266l-211 262q-9 11 -8 26t12 24l96 86q11 9 26 8t26 -10l348 -373 q10 -10 10 -25q0 -10 -8 -22l-350 -375q-10 -10 -26 -10.5t-26 8.5l-96 86q-11 9 -12 23.5t8 25.5z" />
<glyph unicode="&#xbc;" horiz-adv-x="1212" d="M1032 1403l-682 -1372q-17 -31 -51 -31h-139q-12 0 -18.5 10.5t-0.5 20.5l684 1372q17 31 52 31h137q12 0 18 -10.5t0 -20.5zM375 1405v-600q0 -13 -10.5 -24t-24.5 -11h-111q-13 0 -23.5 10.5t-10.5 24.5v391l-54 -29q-12 -7 -26.5 -3t-22.5 16l-33 55q-7 14 -4 28 t15 23l186 133q31 21 63 21h21q14 0 24.5 -11t10.5 -24zM1044 98v-61q0 -14 -10.5 -24.5t-23.5 -10.5h-101q-13 0 -24 11t-11 24v61h-235q-13 0 -24 11t-11 24v66q0 36 21 63l260 383q19 29 55 29h70q13 0 23.5 -10.5t10.5 -24.5v-389h60q14 0 24.5 -11t10.5 -24v-82 q0 -13 -10.5 -24t-24.5 -11h-60zM874 375l-86 -125h86v125z" />
<glyph unicode="&#xbd;" horiz-adv-x="1308" d="M1032 1403l-682 -1372q-17 -31 -51 -31h-139q-12 0 -18.5 10.5t-0.5 20.5l684 1372q17 31 52 31h137q12 0 18 -10.5t0 -20.5zM375 1405v-600q0 -13 -10.5 -24t-24.5 -11h-111q-13 0 -23.5 10.5t-10.5 24.5v391l-54 -29q-12 -7 -26.5 -3t-22.5 16l-33 55q-7 14 -4 28 t15 23l186 133q31 21 63 21h21q14 0 24.5 -11t10.5 -24zM827 461l-61 57q-10 10 -10.5 25.5t8.5 25.5q107 113 235 113q103 0 163.5 -62t60.5 -151q0 -83 -82 -193l-88 -116h125q13 0 23.5 -10.5t10.5 -24.5v-90q0 -14 -10.5 -24.5t-23.5 -10.5h-406q-20 0 -20 20 q0 22 12 37l240 322q36 48 36 88q0 17 -13.5 32t-35.5 15q-49 0 -112 -55q-29 -21 -52 2z" />
<glyph unicode="&#xbe;" horiz-adv-x="1296" d="M1108 1403l-682 -1372q-17 -31 -51 -31h-139q-12 0 -18.5 10.5t-0.5 20.5l684 1372q17 31 51 31h138q12 0 18 -10.5t0 -20.5zM1120 98v-61q0 -13 -11 -24t-24 -11h-100q-13 0 -24 11t-11 24v61h-235q-13 0 -24 11t-11 24v66q0 37 20 63l261 383q19 29 55 29h69 q13 0 24 -11t11 -24v-389h60q13 0 23.5 -10.5t10.5 -24.5v-82q0 -14 -10.5 -24.5t-23.5 -10.5h-60zM950 375l-86 -125h86v125zM516 1235q0 -33 -17 -71.5t-46 -63.5q63 -50 63 -131q0 -31 -10.5 -64t-35 -68.5t-74 -58t-117.5 -22.5q-114 0 -211 78q-12 9 -13 24t8 25l56 57 q9 11 23 12t26 -8q48 -31 111 -31q29 0 50 16t21 40q0 31 -20.5 47t-50.5 16h-78q-13 0 -24 11t-11 24v68q0 13 10.5 23.5t24.5 10.5h78q29 0 50 17.5t21 48.5q0 25 -21 40t-50 15q-49 0 -109 -37q-12 -8 -27 -5.5t-24 12.5l-51 57q-9 10 -8.5 25t10.5 24q93 82 209 82 q68 0 117.5 -22t74 -57t35 -68t10.5 -66z" />
<glyph unicode="&#xbf;" horiz-adv-x="1169" d="M442 428v111q0 13 10.5 23.5t24.5 10.5h191q14 0 24 -10.5t10 -23.5v-117q0 -57 -21.5 -110t-45 -84t-68.5 -83q-32 -37 -46 -54t-36 -50.5t-31.5 -64.5t-9.5 -64q0 -18 5 -35.5t18 -36.5t42 -30t69 -9q54 3 104.5 35.5t124.5 102.5q11 11 25 11t24 -11l125 -117 q9 -11 9.5 -25.5t-9.5 -23.5q-109 -117 -210 -170.5t-228 -53.5q-168 0 -273.5 95.5t-105.5 265.5q0 55 16 109t47.5 104t57 83t65.5 79q31 36 46.5 55.5t30.5 45.5t15 42zM733 879q0 -67 -46 -112.5t-114 -45.5q-66 0 -112.5 45.5t-46.5 112.5t46.5 113t112.5 46 q69 0 114.5 -43.5t45.5 -115.5z" />
<glyph unicode="&#xc0;" d="M776 1430l631 -1399q5 -11 -2 -21t-19 -10h-251q-16 0 -30 9t-18 24l-124 303h-443l-123 -303q-13 -33 -47 -33h-254q-12 0 -18.5 10t-1.5 21l629 1399q11 22 34 22q26 0 37 -22zM741 887l-129 -322h258zM670 1999l276 -215q11 -8 13 -22.5t-7 -26.5l-65 -95 q-9 -12 -23 -15t-26 5l-299 185q-11 8 -14 21.5t5 25.5l93 129q7 12 22 14t25 -6z" />
<glyph unicode="&#xc1;" d="M776 1430l631 -1399q5 -11 -2 -21t-19 -10h-251q-16 0 -30 9t-18 24l-124 303h-443l-123 -303q-13 -33 -47 -33h-254q-12 0 -18.5 10t-1.5 21l629 1399q11 22 34 22q26 0 37 -22zM741 887l-129 -322h258zM813 1999q10 8 25 6t22 -14l92 -129q9 -12 6 -25.5t-14 -21.5 l-299 -185q-12 -8 -26 -5t-23 15l-66 95q-9 12 -6.5 26.5t13.5 22.5z" />
<glyph unicode="&#xc2;" d="M776 1430l631 -1399q5 -11 -2 -21t-19 -10h-251q-16 0 -30 9t-18 24l-124 303h-443l-123 -303q-13 -33 -47 -33h-254q-12 0 -18.5 10t-1.5 21l629 1399q11 22 34 22q26 0 37 -22zM741 887l-129 -322h258zM438 1782l277 215q11 9 26 9t27 -9l276 -215q11 -8 13.5 -22.5 t-6.5 -26.5l-66 -95q-20 -27 -51 -10l-193 119l-194 -119q-12 -8 -26 -5t-23 15l-66 95q-9 12 -7 26.5t13 22.5z" />
<glyph unicode="&#xc3;" d="M776 1430l631 -1399q5 -11 -2 -21t-19 -10h-251q-16 0 -30 9t-18 24l-124 303h-443l-123 -303q-13 -33 -47 -33h-254q-12 0 -18.5 10t-1.5 21l629 1399q11 22 34 22q26 0 37 -22zM741 887l-129 -322h258zM967 1925l106 -55q12 -8 16.5 -21.5t-2.5 -25.5 q-92 -178 -256 -178q-47 0 -103 34.5t-89 34.5q-52 0 -86 -49q-8 -12 -21.5 -17t-25.5 1l-98 45q-12 6 -18.5 20t-2.5 27q21 54 52.5 92t67 57.5t68 28t66.5 8.5q42 0 79 -16.5t65.5 -32.5t50.5 -16q46 0 82 51q8 11 22.5 14.5t26.5 -2.5z" />
<glyph unicode="&#xc4;" d="M350 1776q0 66 45.5 111.5t112.5 45.5q66 0 111 -45.5t45 -111.5q0 -67 -45 -111.5t-111 -44.5q-68 0 -113 44.5t-45 111.5zM819 1776q0 66 45.5 111.5t112.5 45.5q66 0 111 -45.5t45 -111.5q0 -67 -45 -111.5t-111 -44.5q-68 0 -113 44.5t-45 111.5zM776 1430l631 -1399 q5 -11 -2 -21t-19 -10h-251q-16 0 -30 9t-18 24l-124 303h-443l-123 -303q-13 -33 -47 -33h-254q-12 0 -18.5 10t-1.5 21l629 1399q11 22 34 22q26 0 37 -22zM741 887l-129 -322h258z" />
<glyph unicode="&#xc5;" d="M532 1819q0 86 61.5 147.5t147.5 61.5t146.5 -61.5t60.5 -147.5t-60.5 -146.5t-146.5 -60.5t-147.5 60.5t-61.5 146.5zM680 1819q0 -23 18 -41.5t43 -18.5q23 0 41.5 18.5t18.5 41.5q0 25 -18.5 43t-41.5 18q-25 0 -43 -18t-18 -43zM776 1430l631 -1399q5 -11 -2 -21 t-19 -10h-251q-16 0 -30 9t-18 24l-124 303h-443l-123 -303q-13 -33 -47 -33h-254q-12 0 -18.5 10t-1.5 21l629 1399q11 22 34 22q26 0 37 -22zM741 887l-129 -322h258z" />
<glyph unicode="&#xc6;" horiz-adv-x="1839" d="M1532 573h-502v-307h651q13 0 24 -11t11 -24v-196q0 -13 -11 -24t-24 -11h-905q-14 0 -24.5 11t-10.5 24v301h-217l-127 -305q-4 -15 -18 -24t-29 -9h-254q-12 0 -18.5 10t-1.5 21l624 1372q6 15 20.5 24t29.5 9h931q13 0 24 -11t11 -24v-197q0 -14 -11 -24.5t-24 -10.5 h-651v-327h502q14 0 24.5 -11t10.5 -24v-197q0 -14 -10.5 -24.5t-24.5 -10.5zM741 856l-116 -281h116v281z" />
<glyph unicode="&#xc7;" horiz-adv-x="1517" d="M807 -176h-35q-19 0 -31 12q-12 15 -12 33v119q-133 15 -240 68.5t-174 128t-111.5 168.5t-62.5 184.5t-18 181.5q0 67 10.5 135t35.5 141t62 139t95 125t129.5 102t169 68t211.5 25q166 0 295 -63t241 -181q9 -9 8.5 -24t-10.5 -25l-141 -135q-9 -10 -23.5 -9.5 t-23.5 11.5q-66 66 -162 111t-184 45q-76 0 -138.5 -20t-105 -51.5t-75 -75t-51 -86t-30 -89t-15 -80.5t-3.5 -63t4 -62.5t15.5 -80t30 -89t51.5 -85.5t75 -74.5t105 -51.5t139 -20q89 0 185 40.5t173 102.5q11 9 25.5 8t23.5 -12l119 -145q9 -10 8.5 -25.5t-10.5 -25.5 q-206 -194 -465 -213v-43q53 -1 93.5 -21t62 -49.5t31.5 -59.5t10 -57q0 -109 -69 -166t-171 -57q-93 0 -186 39q-13 6 -18 20.5t1 26.5l33 72q6 13 19.5 19t27.5 1q53 -22 103 -22q29 0 51 20t24 47q2 29 -23.5 48.5t-78.5 19.5z" />
<glyph unicode="&#xc8;" horiz-adv-x="1302" d="M995 573h-501v-307h651q13 0 24 -11t11 -24v-196q0 -13 -11 -24t-24 -11h-905q-14 0 -24.5 11t-10.5 24v1364q0 13 10.5 24t24.5 11h905q13 0 24 -11t11 -24v-197q0 -14 -11 -24.5t-24 -10.5h-651v-327h501q13 0 24 -11t11 -24v-197q0 -14 -11 -24.5t-24 -10.5zM580 1999 l276 -215q11 -8 13 -22.5t-7 -26.5l-65 -95q-9 -12 -23 -15t-26 5l-299 185q-11 8 -14 21.5t5 25.5l92 129q7 12 22.5 14t25.5 -6z" />
<glyph unicode="&#xc9;" horiz-adv-x="1302" d="M995 573h-501v-307h651q13 0 24 -11t11 -24v-196q0 -13 -11 -24t-24 -11h-905q-14 0 -24.5 11t-10.5 24v1364q0 13 10.5 24t24.5 11h905q13 0 24 -11t11 -24v-197q0 -14 -11 -24.5t-24 -10.5h-651v-327h501q13 0 24 -11t11 -24v-197q0 -14 -11 -24.5t-24 -10.5zM446 1784 l277 215q10 8 24 6t23 -14l92 -129q7 -12 5 -25.5t-13 -21.5l-299 -185q-12 -8 -26 -5t-23 15l-66 95q-9 12 -7 26.5t13 22.5z" />
<glyph unicode="&#xca;" horiz-adv-x="1302" d="M995 573h-501v-307h651q13 0 24 -11t11 -24v-196q0 -13 -11 -24t-24 -11h-905q-14 0 -24.5 11t-10.5 24v1364q0 13 10.5 24t24.5 11h905q13 0 24 -11t11 -24v-197q0 -14 -11 -24.5t-24 -10.5h-651v-327h501q13 0 24 -11t11 -24v-197q0 -14 -11 -24.5t-24 -10.5zM348 1782 l277 215q11 9 26 9t27 -9l276 -215q11 -8 13.5 -22.5t-6.5 -26.5l-66 -95q-20 -27 -51 -10l-193 119l-194 -119q-12 -8 -26 -5t-23 15l-66 95q-9 12 -7 26.5t13 22.5z" />
<glyph unicode="&#xcb;" horiz-adv-x="1302" d="M283 1776q0 66 45 111.5t112 45.5q66 0 111 -45.5t45 -111.5q0 -67 -45 -111.5t-111 -44.5q-68 0 -112.5 44.5t-44.5 111.5zM752 1776q0 66 45 111.5t112 45.5q66 0 111 -45.5t45 -111.5q0 -67 -45 -111.5t-111 -44.5q-68 0 -112.5 44.5t-44.5 111.5zM995 573h-501v-307 h651q13 0 24 -11t11 -24v-196q0 -13 -11 -24t-24 -11h-905q-14 0 -24.5 11t-10.5 24v1364q0 13 10.5 24t24.5 11h905q13 0 24 -11t11 -24v-197q0 -14 -11 -24.5t-24 -10.5h-651v-327h501q13 0 24 -11t11 -24v-197q0 -14 -11 -24.5t-24 -10.5z" />
<glyph unicode="&#xcc;" horiz-adv-x="544" d="M418 1399v-1364q0 -13 -11 -24t-24 -11h-221q-14 0 -24.5 11t-10.5 24v1364q0 13 10.5 24t24.5 11h221q13 0 24 -11t11 -24zM201 1999l276 -215q11 -8 13 -22.5t-7 -26.5l-65 -95q-9 -12 -23 -15t-26 5l-299 185q-11 8 -14 21.5t5 25.5l93 129q7 12 22 14t25 -6z" />
<glyph unicode="&#xcd;" horiz-adv-x="544" d="M418 1399v-1364q0 -13 -11 -24t-24 -11h-221q-14 0 -24.5 11t-10.5 24v1364q0 13 10.5 24t24.5 11h221q13 0 24 -11t11 -24zM68 1784l276 215q10 8 24 6t23 -14l92 -129q7 -12 5 -25.5t-13 -21.5l-299 -185q-12 -8 -26 -5t-23 15l-66 95q-9 12 -6.5 26.5t13.5 22.5z" />
<glyph unicode="&#xce;" horiz-adv-x="659" d="M475 1399v-1364q0 -13 -10.5 -24t-24.5 -11h-221q-13 0 -24 11t-11 24v1364q0 13 11 24t24 11h221q14 0 24.5 -11t10.5 -24zM27 1782l276 215q11 9 26 9t27 -9l277 -215q11 -8 13 -22.5t-7 -26.5l-66 -95q-20 -27 -51 -10l-192 119l-195 -119q-12 -8 -26 -5t-23 15 l-66 95q-9 12 -6.5 26.5t13.5 22.5z" />
<glyph unicode="&#xcf;" horiz-adv-x="815" d="M553 1399v-1364q0 -13 -10.5 -24t-24.5 -11h-221q-13 0 -24 11t-11 24v1364q0 13 11 24t24 11h221q14 0 24.5 -11t10.5 -24zM4 1800q11 53 53.5 88t100.5 35q66 0 110.5 -46t44.5 -112q0 -67 -44.5 -111t-110.5 -44q-58 0 -100.5 33.5t-53.5 87.5q-9 35 0 69zM502 1765 q0 66 45 112t112 46q66 0 111 -46t45 -112q0 -67 -45 -111t-111 -44q-68 0 -112.5 44t-44.5 111z" />
<glyph unicode="&#xd0;" horiz-adv-x="1546" d="M94 840h111v559q0 13 10.5 24t24.5 11h475q132 0 241.5 -32t185 -87.5t131.5 -125.5t88 -152t47 -160.5t15 -157.5q0 -98 -20.5 -193t-72.5 -192t-129.5 -169.5t-203 -118.5t-282.5 -46h-475q-14 0 -24.5 11t-10.5 24v569h-111q-14 0 -24.5 11t-10.5 24v166q0 13 10.5 24 t24.5 11zM492 266h223q75 0 137 19t104 50t74.5 73t50.5 83.5t29.5 87t15.5 78.5t4 62q0 43 -8 92.5t-34.5 116t-69.5 117.5t-121.5 87.5t-181.5 36.5h-223v-329h243q13 0 24 -11t11 -24v-166q0 -13 -11 -24t-24 -11h-243v-338z" />
<glyph unicode="&#xd1;" horiz-adv-x="1589" d="M461 0h-221q-14 0 -24.5 11t-10.5 24v1386q0 12 7.5 20.5t18.5 8.5q30 0 50 -20l813 -809v778q0 14 10.5 24.5t23.5 10.5h222q13 0 23.5 -10.5t10.5 -24.5v-1387q0 -10 -7 -17t-17 -7q-24 0 -43 16l-821 830v-799q0 -13 -11 -24t-24 -11zM1020 1898l106 -55 q13 -8 17.5 -21.5t-2.5 -25.5q-92 -178 -256 -178q-38 0 -71.5 17.5t-63 35t-58.5 17.5q-51 0 -86 -50q-8 -12 -21.5 -17t-25.5 1l-98 45q-12 6 -18.5 20t-2.5 27q21 54 52.5 92.5t66.5 58t68 28t67 8.5q42 0 79 -16.5t65.5 -33t50.5 -16.5q46 0 82 51q8 11 22.5 14.5 t26.5 -2.5z" />
<glyph unicode="&#xd2;" horiz-adv-x="1667" d="M836 1458q113 0 210 -25.5t168 -68.5t128.5 -102.5t94.5 -125.5t61.5 -139.5t35 -142t10.5 -135.5q0 -69 -10.5 -138t-35 -143t-61.5 -140t-94.5 -125.5t-128.5 -102.5t-168 -68t-210 -25q-114 0 -211.5 25t-169 68t-129.5 102.5t-95 125.5t-62 140t-35.5 143t-10.5 138 q0 67 10.5 135.5t35.5 142t62 139t95 125.5t129.5 103t169 68.5t211.5 25.5zM836 246q74 0 136 20.5t103.5 52.5t74 76.5t50.5 88t29.5 90.5t15.5 81.5t4 63.5q0 44 -8 94.5t-34.5 120t-69 123.5t-121 92.5t-180.5 38.5q-76 0 -138.5 -20t-105 -52t-75 -76t-51 -87t-30 -90 t-15 -81t-3.5 -63t3.5 -63t15 -81.5t30 -91t51 -88t75 -76.5t105 -52.5t138.5 -20.5zM762 1999l276 -215q11 -8 13 -22.5t-7 -26.5l-65 -95q-9 -12 -23 -15t-26 5l-299 185q-11 8 -14 21.5t6 25.5l92 129q7 12 22 14t25 -6z" />
<glyph unicode="&#xd3;" horiz-adv-x="1667" d="M836 1458q113 0 210 -25.5t168 -68.5t128.5 -102.5t94.5 -125.5t61.5 -139.5t35 -142t10.5 -135.5q0 -69 -10.5 -138t-35 -143t-61.5 -140t-94.5 -125.5t-128.5 -102.5t-168 -68t-210 -25q-114 0 -211.5 25t-169 68t-129.5 102.5t-95 125.5t-62 140t-35.5 143t-10.5 138 q0 67 10.5 135.5t35.5 142t62 139t95 125.5t129.5 103t169 68.5t211.5 25.5zM836 246q74 0 136 20.5t103.5 52.5t74 76.5t50.5 88t29.5 90.5t15.5 81.5t4 63.5q0 44 -8 94.5t-34.5 120t-69 123.5t-121 92.5t-180.5 38.5q-76 0 -138.5 -20t-105 -52t-75 -76t-51 -87t-30 -90 t-15 -81t-3.5 -63t3.5 -63t15 -81.5t30 -91t51 -88t75 -76.5t105 -52.5t138.5 -20.5zM629 1784l276 215q10 8 25 6t22 -14l92 -129q9 -12 6 -25.5t-14 -21.5l-299 -185q-12 -8 -26 -5t-23 15l-65 95q-9 12 -7 26.5t13 22.5z" />
<glyph unicode="&#xd4;" horiz-adv-x="1667" d="M836 1458q113 0 210 -25.5t168 -68.5t128.5 -102.5t94.5 -125.5t61.5 -139.5t35 -142t10.5 -135.5q0 -69 -10.5 -138t-35 -143t-61.5 -140t-94.5 -125.5t-128.5 -102.5t-168 -68t-210 -25q-114 0 -211.5 25t-169 68t-129.5 102.5t-95 125.5t-62 140t-35.5 143t-10.5 138 q0 67 10.5 135.5t35.5 142t62 139t95 125.5t129.5 103t169 68.5t211.5 25.5zM836 246q74 0 136 20.5t103.5 52.5t74 76.5t50.5 88t29.5 90.5t15.5 81.5t4 63.5q0 44 -8 94.5t-34.5 120t-69 123.5t-121 92.5t-180.5 38.5q-76 0 -138.5 -20t-105 -52t-75 -76t-51 -87t-30 -90 t-15 -81t-3.5 -63t3.5 -63t15 -81.5t30 -91t51 -88t75 -76.5t105 -52.5t138.5 -20.5zM530 1788l277 215q11 9 26 9t27 -9l277 -215q11 -8 13 -22.5t-7 -26.5l-66 -94q-9 -12 -23 -15t-28 4l-192 119l-195 -119q-12 -7 -26 -4t-23 15l-66 94q-9 12 -7 26.5t13 22.5z" />
<glyph unicode="&#xd5;" horiz-adv-x="1667" d="M836 1458q113 0 210 -25.5t168 -68.5t128.5 -102.5t94.5 -125.5t61.5 -139.5t35 -142t10.5 -135.5q0 -69 -10.5 -138t-35 -143t-61.5 -140t-94.5 -125.5t-128.5 -102.5t-168 -68t-210 -25q-114 0 -211.5 25t-169 68t-129.5 102.5t-95 125.5t-62 140t-35.5 143t-10.5 138 q0 67 10.5 135.5t35.5 142t62 139t95 125.5t129.5 103t169 68.5t211.5 25.5zM836 246q74 0 136 20.5t103.5 52.5t74 76.5t50.5 88t29.5 90.5t15.5 81.5t4 63.5q0 44 -8 94.5t-34.5 120t-69 123.5t-121 92.5t-180.5 38.5q-76 0 -138.5 -20t-105 -52t-75 -76t-51 -87t-30 -90 t-15 -81t-3.5 -63t3.5 -63t15 -81.5t30 -91t51 -88t75 -76.5t105 -52.5t138.5 -20.5zM1028 1915l168 -88q-95 -209 -272 -209q-48 0 -104 35t-89 35q-64 0 -102 -80l-160 73q19 63 50.5 108.5t69 68.5t72.5 33t72 10q42 0 79 -16.5t65.5 -33t50.5 -16.5q55 0 100 80z" />
<glyph unicode="&#xd6;" horiz-adv-x="1667" d="M836 1458q113 0 210 -25.5t168 -68.5t128.5 -102.5t94.5 -125.5t61.5 -139.5t35 -142t10.5 -135.5q0 -69 -10.5 -138t-35 -143t-61.5 -140t-94.5 -125.5t-128.5 -102.5t-168 -68t-210 -25q-114 0 -211.5 25t-169 68t-129.5 102.5t-95 125.5t-62 140t-35.5 143t-10.5 138 q0 67 10.5 135.5t35.5 142t62 139t95 125.5t129.5 103t169 68.5t211.5 25.5zM836 246q74 0 136 20.5t103.5 52.5t74 76.5t50.5 88t29.5 90.5t15.5 81.5t4 63.5q0 44 -8 94.5t-34.5 120t-69 123.5t-121 92.5t-180.5 38.5q-76 0 -138.5 -20t-105 -52t-75 -76t-51 -87t-30 -90 t-15 -81t-3.5 -63t3.5 -63t15 -81.5t30 -91t51 -88t75 -76.5t105 -52.5t138.5 -20.5zM442 1776q0 66 45.5 111.5t112.5 45.5q66 0 111 -45.5t45 -111.5q0 -67 -45 -111.5t-111 -44.5q-68 0 -113 44.5t-45 111.5zM911 1776q0 66 45.5 111.5t112.5 45.5q66 0 111 -45.5 t45 -111.5q0 -67 -45 -111.5t-111 -44.5q-68 0 -113 44.5t-45 111.5z" />
<glyph unicode="&#xd7;" horiz-adv-x="1150" d="M756 68l-181 180l-182 -180q-11 -10 -25 -10t-24 10l-115 114q-11 10 -11 24t11 25l183 181l-183 182q-11 10 -11 24t11 25l117 115q10 10 24 10t25 -10l180 -180l183 180q10 10 24 10t25 -10l115 -115q10 -11 10 -25t-10 -24l-183 -180l183 -183q10 -11 10 -25t-10 -24 l-117 -114q-11 -10 -25 -10t-24 10z" />
<glyph unicode="&#xd8;" horiz-adv-x="1667" d="M1380 1217q84 -106 124 -238t40 -260q0 -69 -10.5 -138t-35 -143t-61.5 -140t-94.5 -125.5t-128.5 -102.5t-168 -68t-210 -25q-242 0 -406 109l-94 -113q-9 -11 -23.5 -12t-25.5 8l-107 88q-11 9 -12 23.5t8 25.5l103 121q-80 104 -118 234.5t-38 257.5q0 67 10.5 135.5 t35.5 142t62 139t95 125.5t129.5 103t169 68.5t211.5 25.5q222 0 389 -102l82 96q9 11 23.5 12t25.5 -8l106 -88q11 -9 12 -23.5t-8 -25.5zM418 719q0 -137 57 -256l565 674q-87 51 -204 51q-76 0 -138.5 -20t-105 -52t-75 -76t-51 -87t-30 -90t-15 -81t-3.5 -63zM836 246 q74 0 136 20.5t103.5 52.5t74 76.5t50.5 88t29.5 90.5t15.5 81.5t4 63.5q0 144 -65 264l-570 -680q90 -57 222 -57z" />
<glyph unicode="&#xd9;" horiz-adv-x="1507" d="M965 1735l-66 -95q-9 -12 -23 -15t-26 5l-299 185q-11 8 -14 21.5t6 25.5l92 129q7 12 22 14t25 -6l276 -215q11 -8 13.5 -22.5t-6.5 -26.5zM1065 1434h223q14 0 24.5 -11t10.5 -24v-842q0 -76 -18 -152.5t-61 -153t-106.5 -134.5t-163 -94.5t-220.5 -36.5 q-122 0 -221 36.5t-162.5 94.5t-107 134.5t-61.5 153t-18 152.5v842q0 13 11 24t24 11h221q14 0 24.5 -11t10.5 -24v-842q0 -29 7.5 -64.5t27.5 -79.5t50 -79.5t80.5 -59.5t113.5 -24t113.5 24t79.5 59.5t49 79.5t27 79.5t7 64.5v842q0 13 11 24t24 11z" />
<glyph unicode="&#xda;" horiz-adv-x="1507" d="M543 1735q-9 12 -7 26.5t13 22.5l276 215q10 8 25 6t22 -14l93 -129q8 -12 5 -25.5t-14 -21.5l-299 -185q-12 -8 -26 -5t-23 15zM1065 1434h223q14 0 24.5 -11t10.5 -24v-842q0 -76 -18 -152.5t-61 -153t-106.5 -134.5t-163 -94.5t-220.5 -36.5q-122 0 -221 36.5 t-162.5 94.5t-107 134.5t-61.5 153t-18 152.5v842q0 13 11 24t24 11h221q14 0 24.5 -11t10.5 -24v-842q0 -29 7.5 -64.5t27.5 -79.5t50 -79.5t80.5 -59.5t113.5 -24t113.5 24t79.5 59.5t49 79.5t27 79.5t7 64.5v842q0 13 11 24t24 11z" />
<glyph unicode="&#xdb;" horiz-adv-x="1507" d="M754 1753l-195 -119q-12 -7 -26 -4t-23 15l-66 94q-9 12 -6.5 26.5t13.5 22.5l276 215q10 9 25.5 9t27.5 -9l277 -215q11 -8 13 -22.5t-7 -26.5l-66 -94q-9 -12 -23 -15t-28 4zM1065 1434h223q14 0 24.5 -11t10.5 -24v-842q0 -76 -18 -152.5t-61 -153t-106.5 -134.5 t-163 -94.5t-220.5 -36.5q-122 0 -221 36.5t-162.5 94.5t-107 134.5t-61.5 153t-18 152.5v842q0 13 11 24t24 11h221q14 0 24.5 -11t10.5 -24v-842q0 -29 7.5 -64.5t27.5 -79.5t50 -79.5t80.5 -59.5t113.5 -24t113.5 24t79.5 59.5t49 79.5t27 79.5t7 64.5v842q0 13 11 24 t24 11z" />
<glyph unicode="&#xdc;" horiz-adv-x="1507" d="M362 1776q0 66 45.5 111.5t112.5 45.5q66 0 111 -45.5t45 -111.5q0 -67 -45 -111.5t-111 -44.5q-68 0 -113 44.5t-45 111.5zM831 1776q0 66 45.5 111.5t112.5 45.5q66 0 111 -45.5t45 -111.5q0 -67 -45 -111.5t-111 -44.5q-68 0 -113 44.5t-45 111.5zM1065 1434h223 q14 0 24.5 -11t10.5 -24v-842q0 -76 -18 -152.5t-61 -153t-106.5 -134.5t-163 -94.5t-220.5 -36.5q-122 0 -221 36.5t-162.5 94.5t-107 134.5t-61.5 153t-18 152.5v842q0 13 11 24t24 11h221q14 0 24.5 -11t10.5 -24v-842q0 -29 7.5 -64.5t27.5 -79.5t50 -79.5t80.5 -59.5 t113.5 -24t113.5 24t79.5 59.5t49 79.5t27 79.5t7 64.5v842q0 13 11 24t24 11z" />
<glyph unicode="&#xdd;" horiz-adv-x="1361" d="M825 641v-606q0 -14 -10.5 -24.5t-23.5 -10.5h-220q-13 0 -23.5 10.5t-10.5 24.5v602l-469 766q-6 11 -0.5 21t16.5 10h250q32 0 53 -31l293 -508l293 508q21 31 53 31h252q11 0 16.5 -10t-0.5 -21zM475 1784l277 215q10 8 24 6t23 -14l92 -129q7 -12 5 -25.5t-13 -21.5 l-299 -185q-12 -8 -26 -5t-23 15l-66 95q-9 12 -7 26.5t13 22.5z" />
<glyph unicode="&#xde;" horiz-adv-x="1341" d="M696 170h-207v-135q0 -14 -10.5 -24.5t-23.5 -10.5h-215q-14 0 -24.5 11t-10.5 24v1364q0 13 10.5 24t24.5 11h215q13 0 23.5 -10.5t10.5 -24.5v-148h207q115 0 207.5 -35.5t150 -91t96 -129t54 -144t15.5 -140.5t-15.5 -140.5t-54 -144t-96 -129.5t-150 -91.5 t-207.5 -35.5zM489 999v-575h191q61 0 108.5 22t74 54.5t44 73.5t23.5 74.5t6 62.5q0 39 -11 82.5t-36.5 92.5t-79.5 81t-129 32h-191z" />
<glyph unicode="&#xdf;" horiz-adv-x="1361" d="M662 217q112 7 158 56.5t46 119.5q-3 34 -23.5 69t-48 64.5t-54.5 60.5t-45.5 68.5t-18.5 77.5q0 42 25 84.5t55 72t55 70t25 80.5v12t-3 22t-8.5 30t-18 30.5t-29.5 29t-44.5 20t-62.5 8.5q-21 0 -42 -4t-46 -15.5t-44 -29.5t-32 -50.5t-14 -74.5v-1131 q0 -13 -10.5 -23.5t-24.5 -10.5h-217q-14 0 -24.5 10.5t-10.5 23.5v1127q0 89 24 161t59 116.5t84 77.5t90 48t88 24t65.5 10t33.5 1q107 0 191 -30t133 -74.5t81 -102.5t43 -107.5t11 -95.5q0 -61 -17.5 -113.5t-39 -81t-45 -58t-29.5 -44.5q2 -21 21 -45.5t45 -52.5 t52 -62.5t44 -86.5t18 -113q0 -177 -125.5 -287.5t-369.5 -117.5q-14 0 -24.5 10.5t-10.5 23.5v166q0 13 10.5 24t24.5 13z" />
<glyph unicode="&#xe0;" horiz-adv-x="1122" d="M580 1042q73 0 131 -13.5t97 -35.5t67.5 -57t44 -70t24.5 -83t11.5 -86.5t2.5 -90.5v-571q0 -14 -10.5 -24.5t-23.5 -10.5h-123q-15 0 -27.5 9.5t-17.5 23.5l-11 33q-95 -80 -243 -86q-91 -4 -161.5 17t-110.5 54.5t-65 80.5t-33.5 87.5t-8.5 81.5q0 340 438 340 q54 0 119 -14q0 101 -32 134.5t-105 33.5q-34 0 -103.5 -16.5t-138.5 -43.5q-14 -5 -27.5 1.5t-19.5 19.5l-61 145q-6 13 -1.5 27.5t17.5 21.5q171 83 371 92zM680 301v111q-85 22 -127 22q-166 0 -166 -119q0 -44 35.5 -69t85.5 -25q54 0 102.5 25t69.5 55zM772 1325 l-65 -94q-9 -12 -23.5 -15t-26.5 5l-299 184q-11 8 -14 21.5t6 25.5l92 129q7 12 22 14t25 -6l277 -215q11 -8 13 -22.5t-7 -26.5z" />
<glyph unicode="&#xe1;" horiz-adv-x="1122" d="M580 1042q73 0 131 -13.5t97 -35.5t67.5 -57t44 -70t24.5 -83t11.5 -86.5t2.5 -90.5v-571q0 -14 -10.5 -24.5t-23.5 -10.5h-123q-15 0 -27.5 9.5t-17.5 23.5l-11 33q-95 -80 -243 -86q-91 -4 -161.5 17t-110.5 54.5t-65 80.5t-33.5 87.5t-8.5 81.5q0 340 438 340 q54 0 119 -14q0 101 -32 134.5t-105 33.5q-34 0 -103.5 -16.5t-138.5 -43.5q-14 -5 -27.5 1.5t-19.5 19.5l-61 145q-6 14 -1 27.5t17 21.5q200 92 371 92zM680 301v111q-85 22 -127 22q-166 0 -166 -119q0 -44 35.5 -69t85.5 -25q54 0 102.5 25t69.5 55zM764 1405l-299 -184 q-12 -8 -26 -5t-23 15l-66 94q-9 12 -7 26.5t13 22.5l277 215q10 8 24 6t23 -14l92 -129q7 -12 5 -25.5t-13 -21.5z" />
<glyph unicode="&#xe2;" horiz-adv-x="1122" d="M580 1042q73 0 131 -13.5t97 -35.5t67.5 -57t44 -70t24.5 -83t11.5 -86.5t2.5 -90.5v-571q0 -14 -10.5 -24.5t-23.5 -10.5h-123q-15 0 -27.5 9.5t-17.5 23.5l-11 33q-95 -80 -243 -86q-91 -4 -161.5 17t-110.5 54.5t-65 80.5t-33.5 87.5t-8.5 81.5q0 340 438 340 q54 0 119 -14q0 101 -32 134.5t-105 33.5q-34 0 -103.5 -16.5t-138.5 -43.5q-14 -5 -27.5 1.5t-19.5 19.5l-61 145q-6 14 -1 27.5t17 21.5q200 92 371 92zM680 301v111q-85 22 -127 22q-166 0 -166 -119q0 -44 35.5 -69t85.5 -25q54 0 102.5 25t69.5 55zM561 1337l-194 -118 q-12 -8 -26.5 -5t-23.5 15l-65 94q-9 12 -7 26.5t13 22.5l277 215q11 9 26 9t27 -9l276 -215q11 -8 13 -22.5t-7 -26.5l-65 -94q-20 -27 -51 -10z" />
<glyph unicode="&#xe3;" horiz-adv-x="1122" d="M459 1305q-51 0 -86 -50q-8 -12 -21.5 -17t-25.5 1l-99 45q-12 6 -18 20t-2 27q21 54 52.5 92.5t66.5 58t68 28t67 8.5q42 0 79 -16.5t65 -33t50 -16.5q46 0 82 51q8 11 22.5 15t26.5 -2l107 -56q12 -8 16.5 -21.5t-2.5 -25.5q-92 -178 -256 -178q-47 0 -103 35t-89 35z M580 1042q73 0 131 -13.5t97 -35.5t67.5 -57t44 -70t24.5 -83t11.5 -86.5t2.5 -90.5v-571q0 -14 -10.5 -24.5t-23.5 -10.5h-123q-15 0 -27.5 9.5t-17.5 23.5l-11 33q-95 -80 -243 -86q-91 -4 -161.5 17t-110.5 54.5t-65 80.5t-33.5 87.5t-8.5 81.5q0 340 438 340 q54 0 119 -14q0 101 -32 134.5t-105 33.5q-34 0 -103.5 -16.5t-138.5 -43.5q-14 -5 -27.5 1.5t-19.5 19.5l-61 145q-6 14 -1 27.5t17 21.5q200 92 371 92zM680 301v111q-85 22 -127 22q-166 0 -166 -119q0 -44 35.5 -69t85.5 -25q54 0 102.5 25t69.5 55z" />
<glyph unicode="&#xe4;" horiz-adv-x="1122" d="M170 1366q0 66 45.5 112t112.5 46q66 0 110.5 -46t44.5 -112q0 -67 -44.5 -111.5t-110.5 -44.5q-68 0 -113 44.5t-45 111.5zM639 1366q0 66 45.5 112t112.5 46q66 0 110.5 -46t44.5 -112q0 -67 -44.5 -111.5t-110.5 -44.5q-68 0 -113 44.5t-45 111.5zM580 1042 q73 0 131 -13.5t97 -35.5t67.5 -57t44 -70t24.5 -83t11.5 -86.5t2.5 -90.5v-571q0 -14 -10.5 -24.5t-23.5 -10.5h-123q-15 0 -27.5 9.5t-17.5 23.5l-11 33q-95 -80 -243 -86q-91 -4 -161.5 17t-110.5 54.5t-65 80.5t-33.5 87.5t-8.5 81.5q0 340 438 340q54 0 119 -14 q0 101 -32 134.5t-105 33.5q-34 0 -103.5 -16.5t-138.5 -43.5q-14 -5 -27.5 1.5t-19.5 19.5l-61 145q-6 14 -1 27.5t17 21.5q200 92 371 92zM680 301v111q-85 22 -127 22q-166 0 -166 -119q0 -44 35.5 -69t85.5 -25q54 0 102.5 25t69.5 55z" />
<glyph unicode="&#xe5;" horiz-adv-x="1122" d="M352 1409q0 86 61.5 147.5t147.5 61.5t146.5 -61.5t60.5 -147.5t-60.5 -146.5t-146.5 -60.5t-147.5 60.5t-61.5 146.5zM500 1409q0 -23 18 -41t43 -18q23 0 41.5 18t18.5 41q0 25 -18.5 43t-41.5 18q-25 0 -43 -18t-18 -43zM580 1042q73 0 131 -13.5t97 -35.5t67.5 -57 t44 -70t24.5 -83t11.5 -86.5t2.5 -90.5v-571q0 -14 -10.5 -24.5t-23.5 -10.5h-123q-15 0 -27.5 9.5t-17.5 23.5l-11 33q-95 -80 -243 -86q-91 -4 -161.5 17t-110.5 54.5t-65 80.5t-33.5 87.5t-8.5 81.5q0 340 438 340q54 0 119 -14q0 101 -32 134.5t-105 33.5 q-34 0 -103.5 -16.5t-138.5 -43.5q-14 -5 -27.5 1.5t-19.5 19.5l-61 145q-6 14 -1 27.5t17 21.5q200 92 371 92zM680 301v111q-85 22 -127 22q-166 0 -166 -119q0 -44 35.5 -69t85.5 -25q54 0 102.5 25t69.5 55z" />
<glyph unicode="&#xe6;" horiz-adv-x="1671" d="M1536 465h-606q13 -97 71.5 -161t153.5 -64q118 0 227 71q12 8 26.5 6t23.5 -14l94 -129q9 -12 7 -27t-13 -24q-176 -135 -365 -135q-217 0 -348 118q-124 -114 -305 -126q-91 -4 -161.5 17t-110.5 54.5t-65 80.5t-33.5 87.5t-8.5 81.5q0 340 438 340q34 0 92 -8 q9 35 21 72q-11 52 -42.5 71t-88.5 19q-34 0 -103.5 -16.5t-138.5 -43.5q-14 -5 -27.5 1.5t-19.5 19.5l-61 145q-6 13 -1.5 27.5t17.5 21.5q166 81 319 90q9 0 26.5 1t25.5 1q187 0 276 -86q127 82 299 82q201 0 312.5 -119t111.5 -321q0 -48 -6 -98q0 -15 -11 -25t-26 -10z M670 334q-15 44 -21 86q-68 14 -96 14q-166 0 -166 -119q0 -44 35.5 -69t85.5 -25q84 0 147 55q27 18 15 58zM1155 791q-83 0 -137.5 -44t-79.5 -118h367q-4 160 -150 162z" />
<glyph unicode="&#xe7;" horiz-adv-x="1181" d="M594 -176h-35q-19 0 -31 12q-12 15 -12 33v129q-86 16 -154.5 56t-112.5 92t-73 116t-41 125t-12 121q0 74 13.5 143t49.5 141.5t91.5 126t147.5 87.5t210 34q212 0 383 -178q10 -10 10.5 -25.5t-8.5 -25.5l-115 -125q-9 -10 -23 -10.5t-24 8.5q-50 45 -110 71.5 t-113 26.5q-112 0 -174 -80t-62 -188q0 -121 70 -191.5t168 -70.5q104 0 199 80q10 8 25 7t24 -11l116 -142q9 -10 8.5 -25.5t-10.5 -25.5q-143 -133 -315 -147v-45q53 -1 93.5 -21t62 -49.5t31.5 -59.5t10 -57q0 -109 -69 -166t-171 -57q-93 0 -186 39q-13 6 -18 20.5 t1 26.5l33 72q6 13 19.5 19t27.5 1q53 -22 103 -22q29 0 51 20t24 47q2 29 -23.5 48.5t-78.5 19.5z" />
<glyph unicode="&#xe8;" horiz-adv-x="1120" d="M985 465h-606q13 -97 71.5 -161t153.5 -64q118 0 227 71q12 8 26.5 6t23.5 -14l94 -129q9 -12 7 -27t-13 -24q-176 -135 -365 -135q-112 0 -202.5 34t-147 87.5t-94.5 124.5t-53 140.5t-15 139.5q0 69 15 137.5t53 139.5t94.5 125t147 88t202.5 34q201 0 312.5 -119 t111.5 -321q0 -48 -6 -98q0 -15 -11 -25t-26 -10zM569 788q-68 -9 -114.5 -51t-67.5 -108h367q-3 84 -51 124.5t-134 34.5zM487 1589l277 -215q11 -8 13 -22.5t-7 -26.5l-65 -94q-9 -12 -23.5 -15t-26.5 5l-299 184q-11 8 -14 21.5t6 25.5l92 129q7 12 22 14t25 -6z" />
<glyph unicode="&#xe9;" horiz-adv-x="1120" d="M985 465h-606q13 -97 71.5 -161t153.5 -64q118 0 227 71q12 8 26.5 6t23.5 -14l94 -129q9 -12 7 -27t-13 -24q-176 -135 -365 -135q-112 0 -202.5 34t-147 87.5t-94.5 124.5t-53 140.5t-15 139.5q0 69 15 137.5t53 139.5t94.5 125t147 88t202.5 34q201 0 312.5 -119 t111.5 -321q0 -48 -6 -98q0 -15 -11 -25t-26 -10zM569 788q-68 -9 -114.5 -51t-67.5 -108h367q-3 84 -51 124.5t-134 34.5zM354 1374l277 215q10 8 25 6t22 -14l92 -129q9 -12 6 -25.5t-14 -21.5l-299 -184q-12 -8 -26 -5t-23 15l-66 94q-9 12 -7 26.5t13 22.5z" />
<glyph unicode="&#xea;" horiz-adv-x="1120" d="M985 465h-606q13 -97 71.5 -161t153.5 -64q118 0 227 71q12 8 26.5 6t23.5 -14l94 -129q9 -12 7 -27t-13 -24q-176 -135 -365 -135q-112 0 -202.5 34t-147 87.5t-94.5 124.5t-53 140.5t-15 139.5q0 69 15 137.5t53 139.5t94.5 125t147 88t202.5 34q201 0 312.5 -119 t111.5 -321q0 -48 -6 -98q0 -15 -11 -25t-26 -10zM569 788q-68 -9 -114.5 -51t-67.5 -108h367q-4 140 -115 157q-31 5 -70 2zM289 1372l276 215q10 9 25.5 9t27.5 -9l277 -215q11 -8 13 -22.5t-7 -26.5l-65 -94q-21 -27 -52 -10l-192 118l-195 -118q-12 -8 -26 -5t-23 15 l-65 94q-9 12 -7 26.5t13 22.5z" />
<glyph unicode="&#xeb;" horiz-adv-x="1120" d="M170 1366q0 66 45.5 112t112.5 46q66 0 110.5 -46t44.5 -112q0 -67 -44.5 -111.5t-110.5 -44.5q-68 0 -113 44.5t-45 111.5zM639 1366q0 66 45.5 112t112.5 46q66 0 110.5 -46t44.5 -112q0 -67 -44.5 -111.5t-110.5 -44.5q-68 0 -113 44.5t-45 111.5zM985 465h-606 q13 -97 71.5 -161t153.5 -64q118 0 227 71q12 8 26.5 6t23.5 -14l94 -129q9 -12 7 -27t-13 -24q-176 -135 -365 -135q-112 0 -202.5 34t-147 87.5t-94.5 124.5t-53 140.5t-15 139.5q0 69 15 137.5t53 139.5t94.5 125t147 88t202.5 34q201 0 312.5 -119t111.5 -321 q0 -48 -6 -98q0 -15 -11 -25t-26 -10zM569 788q-68 -9 -114.5 -51t-67.5 -108h367q-4 140 -115 157q-31 5 -70 2z" />
<glyph unicode="&#xec;" horiz-adv-x="544" d="M412 989v-954q0 -13 -11 -24t-24 -11h-209q-14 0 -24.5 11t-10.5 24v954q0 13 10.5 24t24.5 11h209q13 0 24 -11t11 -24zM201 1589l276 -215q11 -8 13 -22.5t-7 -26.5l-65 -94q-9 -12 -23 -15t-26 5l-299 184q-11 8 -14 21.5t5 25.5l93 129q7 12 22 14t25 -6z" />
<glyph unicode="&#xed;" horiz-adv-x="544" d="M412 989v-954q0 -13 -11 -24t-24 -11h-209q-14 0 -24.5 11t-10.5 24v954q0 13 10.5 24t24.5 11h209q13 0 24 -11t11 -24zM68 1374l276 215q10 8 24 6t23 -14l92 -129q7 -12 5 -25.5t-13 -21.5l-299 -184q-12 -8 -26 -5t-23 15l-66 94q-9 12 -6.5 26.5t13.5 22.5z" />
<glyph unicode="&#xee;" horiz-adv-x="659" d="M469 989v-954q0 -13 -10.5 -24t-24.5 -11h-209q-13 0 -24 11t-11 24v954q0 13 11 24t24 11h209q14 0 24.5 -11t10.5 -24zM27 1378l276 215q11 9 26 9t27 -9l277 -215q11 -8 13 -22.5t-7 -26.5l-66 -94q-20 -27 -51 -10l-192 118l-195 -118q-12 -8 -26 -5t-23 15l-66 94 q-9 12 -6.5 26.5t13.5 22.5z" />
<glyph unicode="&#xef;" horiz-adv-x="782" d="M530 989v-954q0 -14 -10.5 -24.5t-23.5 -10.5h-209q-13 0 -24 11t-11 24v954q0 13 11 24t24 11h209q13 0 23.5 -10.5t10.5 -24.5zM4 1401q11 53 53.5 88t100.5 35q66 0 110.5 -46t44.5 -112q0 -67 -44.5 -111.5t-110.5 -44.5q-58 0 -100.5 33.5t-53.5 87.5q-9 35 0 70z M469 1366q0 66 45.5 112t112.5 46q66 0 110.5 -46t44.5 -112q0 -67 -44.5 -111.5t-110.5 -44.5q-68 0 -113 44.5t-45 111.5z" />
<glyph unicode="&#xf0;" horiz-adv-x="1196" d="M350 1298l109 142q8 12 22.5 14.5t26.5 -6.5q38 -23 88 -64l96 99q10 11 24 11t25 -11l82 -82q11 -11 11 -25t-11 -24l-88 -88q340 -348 340 -803q0 -49 -11.5 -104.5t-45 -123t-84 -120.5t-138 -89t-198.5 -36q-80 0 -148 18t-115.5 47.5t-85.5 69t-61 81.5t-38 86.5 t-21 81.5t-6 70q0 60 10.5 117t40.5 120t77 110.5t126.5 81t181.5 38.5q86 0 141 -24q-44 95 -145 200l-74 -73q-11 -10 -25 -10t-24 10l-78 78q-10 10 -10 24t10 25l68 67q-22 18 -64 47q-11 8 -13 21t5 24zM598 242q97 0 152 62.5t55 148.5q-3 88 -56.5 148.5t-150.5 60.5 t-151 -62t-54 -147t55 -148t150 -63z" />
<glyph unicode="&#xf1;" horiz-adv-x="1198" d="M440 705v-670q0 -14 -10.5 -24.5t-23.5 -10.5h-207q-13 0 -24 11t-11 24v954q0 13 11 24t24 11h118q15 0 27.5 -9.5t17.5 -23.5l15 -41q111 90 258 90q81 0 146.5 -16t111 -43t79 -67.5t53 -83t31 -96.5t15.5 -101.5t4 -104.5v-493q0 -13 -10.5 -24t-24.5 -11h-213 q-13 0 -23.5 10.5t-10.5 24.5v493q0 39 -2.5 70.5t-13 70t-27.5 64t-49 43t-76 17.5q-60 0 -109 -25.5t-76 -62.5zM825 1489l107 -55q12 -8 16.5 -22t-2.5 -26q-92 -178 -256 -178q-38 0 -71.5 17.5t-62.5 35t-58 17.5q-52 0 -86 -49q-8 -12 -21.5 -17.5t-25.5 0.5l-99 45 q-12 6 -18 20.5t-2 27.5q21 54 52.5 92t67 57.5t68 28t66.5 8.5q42 0 79 -16.5t65 -33t50 -16.5q45 0 82 52q8 11 22.5 14.5t26.5 -2.5z" />
<glyph unicode="&#xf2;" horiz-adv-x="1265" d="M633 1044q113 0 203.5 -35t146.5 -90t93 -127.5t52 -141.5t15 -138q0 -71 -15 -140.5t-52 -141t-93 -125.5t-146.5 -88.5t-203.5 -34.5t-203.5 34.5t-146.5 88.5t-93 125.5t-52 141t-15 140.5q0 69 15 138t52 141.5t93 127.5t146.5 90t203.5 35zM633 229q58 0 102.5 23 t68.5 56t39 75t19 72.5t4 56.5t-4 57t-19 73t-39 75t-68.5 56.5t-102.5 23.5t-103 -23.5t-69 -56.5t-39.5 -75t-20 -73t-4.5 -57t4.5 -57t20 -72.5t39.5 -74.5t69 -56t103 -23zM561 1589l277 -215q11 -8 13 -22.5t-7 -26.5l-66 -94q-9 -12 -23 -15t-26 5l-299 184 q-11 8 -14 21.5t6 25.5l92 129q7 12 22 14t25 -6z" />
<glyph unicode="&#xf3;" horiz-adv-x="1265" d="M633 1044q113 0 203.5 -35t146.5 -90t93 -127.5t52 -141.5t15 -138q0 -71 -15 -140.5t-52 -141t-93 -125.5t-146.5 -88.5t-203.5 -34.5t-203.5 34.5t-146.5 88.5t-93 125.5t-52 141t-15 140.5q0 69 15 138t52 141.5t93 127.5t146.5 90t203.5 35zM633 229q58 0 102.5 23 t68.5 56t39 75t19 72.5t4 56.5t-4 57t-19 73t-39 75t-68.5 56.5t-102.5 23.5t-103 -23.5t-69 -56.5t-39.5 -75t-20 -73t-4.5 -57t4.5 -57t20 -72.5t39.5 -74.5t69 -56t103 -23zM428 1374l277 215q10 8 25 6t22 -14l92 -129q9 -12 6 -25.5t-14 -21.5l-299 -184 q-12 -8 -26.5 -5t-23.5 15l-65 94q-9 12 -7 26.5t13 22.5z" />
<glyph unicode="&#xf4;" horiz-adv-x="1265" d="M330 1378l276 215q10 9 25.5 9t27.5 -9l277 -215q11 -8 13 -22.5t-7 -26.5l-65 -94q-21 -27 -52 -10l-192 118l-195 -118q-12 -8 -26 -5t-23 15l-65 94q-9 12 -7 26.5t13 22.5zM633 1044q113 0 203.5 -35t146.5 -90t93 -127.5t52 -141.5t15 -138q0 -71 -15 -140.5 t-52 -141t-93 -125.5t-146.5 -88.5t-203.5 -34.5t-203.5 34.5t-146.5 88.5t-93 125.5t-52 141t-15 140.5q0 69 15 138t52 141.5t93 127.5t146.5 90t203.5 35zM633 229q58 0 102.5 23t68.5 56t39 75t19 72.5t4 56.5t-4 57t-19 73t-39 75t-68.5 56.5t-102.5 23.5t-103 -23.5 t-69 -56.5t-39.5 -75t-20 -73t-4.5 -57t4.5 -57t20 -72.5t39.5 -74.5t69 -56t103 -23z" />
<glyph unicode="&#xf5;" horiz-adv-x="1265" d="M633 1044q113 0 203.5 -35t146.5 -90t93 -127.5t52 -141.5t15 -138q0 -71 -15 -140.5t-52 -141t-93 -125.5t-146.5 -88.5t-203.5 -34.5t-203.5 34.5t-146.5 88.5t-93 125.5t-52 141t-15 140.5q0 69 15 138t52 141.5t93 127.5t146.5 90t203.5 35zM633 229q58 0 102.5 23 t68.5 56t39 75t19 72.5t4 56.5t-4 57t-19 73t-39 75t-68.5 56.5t-102.5 23.5t-103 -23.5t-69 -56.5t-39.5 -75t-20 -73t-4.5 -57t4.5 -57t20 -72.5t39.5 -74.5t69 -56t103 -23zM858 1489l107 -55q12 -8 16.5 -22t-2.5 -26q-92 -178 -256 -178q-38 0 -71.5 17.5t-63 35 t-58.5 17.5q-52 0 -86 -49q-8 -12 -21.5 -17.5t-25.5 0.5l-98 45q-12 6 -18 20.5t-2 27.5q21 54 52 92t66.5 57.5t68 28t66.5 8.5q42 0 79 -16.5t65.5 -33t50.5 -16.5q45 0 82 52q8 11 22.5 14.5t26.5 -2.5z" />
<glyph unicode="&#xf6;" horiz-adv-x="1265" d="M633 1044q113 0 203.5 -35t146.5 -90t93 -127.5t52 -141.5t15 -138q0 -71 -15 -140.5t-52 -141t-93 -125.5t-146.5 -88.5t-203.5 -34.5t-203.5 34.5t-146.5 88.5t-93 125.5t-52 141t-15 140.5q0 69 15 138t52 141.5t93 127.5t146.5 90t203.5 35zM633 229q58 0 102.5 23 t68.5 56t39 75t19 72.5t4 56.5t-4 57t-19 73t-39 75t-68.5 56.5t-102.5 23.5t-103 -23.5t-69 -56.5t-39.5 -75t-20 -73t-4.5 -57t4.5 -57t20 -72.5t39.5 -74.5t69 -56t103 -23zM242 1366q0 66 45 112t112 46q66 0 111 -46t45 -112q0 -67 -45 -111.5t-111 -44.5 q-68 0 -112.5 44.5t-44.5 111.5zM711 1366q0 66 45 112t112 46q66 0 111 -46t45 -112q0 -67 -45 -111.5t-111 -44.5q-68 0 -112.5 44.5t-44.5 111.5z" />
<glyph unicode="&#xf7;" horiz-adv-x="944" d="M158 612h628q14 0 24.5 -10.5t10.5 -23.5v-134q0 -13 -10.5 -23.5t-24.5 -10.5h-628q-14 0 -24.5 10.5t-10.5 23.5v134q0 13 10.5 23.5t24.5 10.5zM336 924q11 45 48 74.5t87 29.5q59 0 99 -40t40 -99q0 -61 -40 -100t-99 -39q-51 0 -87.5 28.5t-47.5 75.5q-9 35 0 70z M332 139q0 59 39.5 99.5t99.5 40.5q58 0 98.5 -40.5t40.5 -99.5q0 -61 -40 -100t-99 -39q-60 0 -99.5 39t-39.5 100z" />
<glyph unicode="&#xf8;" horiz-adv-x="1265" d="M1135 956l-93 -108q101 -142 101 -336q0 -71 -15 -140.5t-52 -141t-93 -125.5t-146.5 -88.5t-203.5 -34.5q-159 0 -268 61l-70 -82q-9 -11 -23.5 -12t-25.5 8l-107 88q-11 9 -12 23.5t8 25.5l78 92q-90 136 -90 326q0 69 15 138t52 141.5t93 127.5t146.5 90t203.5 35 q146 0 254 -59l88 105q9 11 23.5 12t25.5 -8l106 -88q11 -9 12.5 -24t-7.5 -26zM397 512q0 -44 13 -92l305 362q-43 15 -82 15q-58 0 -103 -23.5t-69 -56.5t-39.5 -75t-20 -73t-4.5 -57zM633 229q58 0 102.5 23t68.5 56t39 75t19 72.5t4 56.5q0 49 -16 106l-313 -370 q43 -19 96 -19z" />
<glyph unicode="&#xf9;" horiz-adv-x="1198" d="M758 319v670q0 13 11 24t24 11h206q13 0 24 -11t11 -24v-954q0 -13 -11 -24t-24 -11h-118q-15 0 -28 9t-17 24l-15 41q-111 -90 -258 -90q-81 0 -146.5 16t-111 43t-79 67.5t-53 83t-31 96.5t-15.5 101.5t-4 104.5v493q0 13 10.5 24t24.5 11h213q13 0 24 -11t11 -24v-493 q0 -39 2.5 -70.5t12.5 -70t27.5 -64t49 -43t75.5 -17.5q60 0 109 25.5t76 62.5zM526 1589l277 -215q11 -8 13 -22.5t-7 -26.5l-66 -94q-9 -12 -23 -15t-26 5l-299 184q-11 8 -14 21.5t6 25.5l92 129q7 12 22 14t25 -6z" />
<glyph unicode="&#xfa;" horiz-adv-x="1198" d="M758 319v670q0 13 11 24t24 11h206q13 0 24 -11t11 -24v-954q0 -13 -11 -24t-24 -11h-118q-15 0 -28 9t-17 24l-15 41q-111 -90 -258 -90q-81 0 -146.5 16t-111 43t-79 67.5t-53 83t-31 96.5t-15.5 101.5t-4 104.5v493q0 13 10.5 24t24.5 11h213q13 0 24 -11t11 -24v-493 q0 -39 2.5 -70.5t12.5 -70t27.5 -64t49 -43t75.5 -17.5q60 0 109 25.5t76 62.5zM393 1374l277 215q10 8 24 6t23 -14l92 -129q7 -12 5 -25.5t-13 -21.5l-299 -184q-12 -8 -26 -5t-23 15l-66 94q-9 12 -7 26.5t13 22.5z" />
<glyph unicode="&#xfb;" horiz-adv-x="1198" d="M295 1378l276 215q11 9 26.5 9t27.5 -9l276 -215q11 -8 13 -22.5t-7 -26.5l-65 -94q-20 -27 -51 -10l-193 118l-195 -118q-12 -8 -26 -5t-23 15l-65 94q-9 12 -7 26.5t13 22.5zM758 319v670q0 13 11 24t24 11h206q13 0 24 -11t11 -24v-954q0 -13 -11 -24t-24 -11h-118 q-15 0 -28 9t-17 24l-15 41q-111 -90 -258 -90q-81 0 -146.5 16t-111 43t-79 67.5t-53 83t-31 96.5t-15.5 101.5t-4 104.5v493q0 13 10.5 24t24.5 11h213q13 0 24 -11t11 -24v-493q0 -39 2.5 -70.5t12.5 -70t27.5 -64t49 -43t75.5 -17.5q60 0 109 25.5t76 62.5z" />
<glyph unicode="&#xfc;" horiz-adv-x="1198" d="M207 1366q0 66 45.5 112t112.5 46q66 0 110.5 -46t44.5 -112q0 -67 -44.5 -111.5t-110.5 -44.5q-68 0 -113 44.5t-45 111.5zM676 1366q0 66 45.5 112t112.5 46q66 0 110.5 -46t44.5 -112q0 -67 -44.5 -111.5t-110.5 -44.5q-68 0 -113 44.5t-45 111.5zM758 319v670 q0 13 11 24t24 11h206q13 0 24 -11t11 -24v-954q0 -13 -11 -24t-24 -11h-118q-15 0 -28 9t-17 24l-15 41q-111 -90 -258 -90q-81 0 -146.5 16t-111 43t-79 67.5t-53 83t-31 96.5t-15.5 101.5t-4 104.5v493q0 13 10.5 24t24.5 11h213q13 0 24 -11t11 -24v-493 q0 -39 2.5 -70.5t12.5 -70t27.5 -64t49 -43t75.5 -17.5q60 0 109 25.5t76 62.5z" />
<glyph unicode="&#xfd;" horiz-adv-x="1224" d="M279 -375l188 457l-406 909q-4 12 2.5 22.5t18.5 10.5h248q15 0 29 -9t18 -24l239 -583l232 583q4 15 18 24t29 9h242q12 0 18.5 -10.5t1.5 -22.5l-579 -1366q-6 -15 -20.5 -24t-29.5 -9h-227q-12 0 -19 10.5t-3 22.5zM408 1374l276 215q10 8 24 6t23 -14l92 -129 q7 -12 5 -25.5t-13 -21.5l-299 -184q-12 -8 -26 -5t-23 15l-66 94q-9 12 -6.5 26.5t13.5 22.5z" />
<glyph unicode="&#xfe;" horiz-adv-x="1257" d="M590 -16q-79 6 -150 28v-385q0 -14 -10.5 -24.5t-23.5 -10.5h-207q-13 0 -24 11t-11 24v1774q0 13 11 24t24 11h207q13 0 23.5 -10.5t10.5 -24.5v-389q86 28 185 28q113 0 203.5 -34.5t146.5 -89t93 -126t52 -140.5t15 -138q0 -67 -14 -134t-49 -137t-87.5 -124 t-136.5 -91t-189 -42h-69zM440 748v-472q67 -45 168 -45q50 0 91.5 15t68 40t45.5 54.5t29 62.5t14 59.5t4 49.5t-4 49.5t-14 59.5t-29 62.5t-45.5 54.5t-68 40t-91.5 15q-101 0 -168 -45z" />
<glyph unicode="&#xff;" horiz-adv-x="1185" d="M201 1366q0 66 45 112t112 46q66 0 111 -46t45 -112q0 -67 -45 -111.5t-111 -44.5q-68 0 -112.5 44.5t-44.5 111.5zM670 1366q0 66 45 112t112 46q66 0 111 -46t45 -112q0 -67 -45 -111.5t-111 -44.5q-68 0 -112.5 44.5t-44.5 111.5zM279 -375l188 457l-406 909 q-4 12 2.5 22.5t18.5 10.5h248q15 0 29 -9t18 -24l239 -583l232 583q4 15 18 24t29 9h242q12 0 18.5 -10.5t1.5 -22.5l-579 -1366q-6 -15 -20.5 -24t-29.5 -9h-227q-12 0 -19 10.5t-3 22.5z" />
<glyph unicode="&#x152;" horiz-adv-x="2144" d="M1837 573h-502v-307h652q13 0 23.5 -10.5t10.5 -24.5v-196q0 -14 -10.5 -24.5t-23.5 -10.5h-940q-121 -23 -211 -23q-114 0 -211.5 25t-169 68t-129.5 102.5t-95 125.5t-62 140t-35.5 143t-10.5 138q0 67 10.5 135.5t35.5 142t62 139t95 125.5t129.5 103t169 68.5 t211.5 25.5q103 0 211 -24h940q13 0 23.5 -10.5t10.5 -24.5v-197q0 -14 -10.5 -24.5t-23.5 -10.5h-652v-327h502q13 0 24 -11t11 -24v-197q0 -14 -11 -24.5t-24 -10.5zM836 246q123 0 211 53v834q-92 55 -211 55q-76 0 -138.5 -20t-105 -52t-75 -76t-51 -87t-30 -90t-15 -81 t-3.5 -63t3.5 -63t15 -81.5t30 -91t51 -88t75 -76.5t105 -52.5t138.5 -20.5z" />
<glyph unicode="&#x153;" horiz-adv-x="1894" d="M1802 598q0 -48 -6 -98q0 -15 -11 -25t-26 -10h-606q13 -97 71.5 -161t153.5 -64q119 0 228 71q29 18 49 -8l94 -129q9 -12 7 -27t-13 -24q-176 -135 -365 -135q-230 0 -374 151q-146 -157 -371 -157q-113 0 -203.5 34.5t-146.5 88.5t-93 125.5t-52 141t-15 140.5 q0 69 15 138t52 141.5t93 127.5t146.5 90t203.5 35q236 0 373 -151q135 145 372 145q201 0 312.5 -119t111.5 -321zM866 512q2 39 -8 83.5t-33.5 92t-73 78.5t-118.5 31q-58 0 -103 -23.5t-69 -56.5t-39.5 -75t-20 -73t-4.5 -57t4.5 -57t20 -72.5t39.5 -74.5t69 -56t103 -23 q56 0 98.5 21.5t66.5 52t40 71.5t21.5 73t6.5 65zM1161 629h367q-4 160 -150 162q-83 0 -137.5 -44t-79.5 -118z" />
<glyph unicode="&#x178;" horiz-adv-x="1386" d="M838 641v-606q0 -13 -11 -24t-24 -11h-219q-14 0 -24.5 11t-10.5 24v602l-469 766q-6 11 -0.5 21t16.5 10h250q32 0 53 -31l293 -498l293 498q21 31 53 31h252q11 0 17 -10.5t0 -20.5zM305 1810q11 53 53.5 88t100.5 35q66 0 110.5 -45.5t44.5 -111.5q0 -67 -44.5 -111.5 t-110.5 -44.5q-58 0 -100.5 33.5t-53.5 87.5q-9 35 0 69zM770 1776q0 66 45.5 111.5t112.5 45.5q66 0 110.5 -45.5t44.5 -111.5q0 -67 -44.5 -111.5t-110.5 -44.5q-68 0 -113 44.5t-45 111.5z" />
<glyph unicode="&#x2c6;" horiz-adv-x="1060" d="M236 1378l276 215q11 9 26 9t27 -9l277 -215q11 -8 13 -22.5t-7 -26.5l-66 -94q-20 -27 -51 -10l-192 118l-195 -118q-12 -8 -26 -5t-23 15l-66 94q-9 12 -6.5 26.5t13.5 22.5z" />
<glyph unicode="&#x2dc;" horiz-adv-x="1095" d="M774 1489l107 -55q12 -8 16.5 -22t-2.5 -26q-92 -178 -256 -178q-47 0 -103.5 35t-89.5 35q-52 0 -86 -49q-8 -12 -21.5 -17.5t-25.5 0.5l-98 45q-12 6 -18 20.5t-2 27.5q21 54 52.5 92t67 57.5t68 28t66.5 8.5q42 0 79 -16.5t65 -33t50 -16.5q45 0 82 52q8 11 22.5 14.5 t26.5 -2.5z" />
<glyph unicode="&#x2000;" horiz-adv-x="1014" />
<glyph unicode="&#x2001;" horiz-adv-x="2028" />
<glyph unicode="&#x2002;" horiz-adv-x="1014" />
<glyph unicode="&#x2003;" horiz-adv-x="2028" />
<glyph unicode="&#x2004;" horiz-adv-x="676" />
<glyph unicode="&#x2005;" horiz-adv-x="507" />
<glyph unicode="&#x2006;" horiz-adv-x="338" />
<glyph unicode="&#x2007;" horiz-adv-x="338" />
<glyph unicode="&#x2008;" horiz-adv-x="253" />
<glyph unicode="&#x2009;" horiz-adv-x="405" />
<glyph unicode="&#x200a;" horiz-adv-x="112" />
<glyph unicode="&#x2010;" horiz-adv-x="913" d="M199 723h516q13 0 24 -10.5t11 -24.5v-166q0 -14 -11 -24.5t-24 -10.5h-516q-13 0 -24 10.5t-11 24.5v166q0 14 11 24.5t24 10.5z" />
<glyph unicode="&#x2011;" horiz-adv-x="913" d="M199 723h516q13 0 24 -10.5t11 -24.5v-166q0 -14 -11 -24.5t-24 -10.5h-516q-13 0 -24 10.5t-11 24.5v166q0 14 11 24.5t24 10.5z" />
<glyph unicode="&#x2012;" horiz-adv-x="913" d="M199 723h516q13 0 24 -10.5t11 -24.5v-166q0 -14 -11 -24.5t-24 -10.5h-516q-13 0 -24 10.5t-11 24.5v166q0 14 11 24.5t24 10.5z" />
<glyph unicode="&#x2013;" horiz-adv-x="1126" d="M930 535h-731q-14 0 -24.5 10.5t-10.5 23.5v162q0 13 11 24t24 11h731q14 0 24.5 -11t10.5 -24v-162q0 -13 -10.5 -23.5t-24.5 -10.5z" />
<glyph unicode="&#x2014;" horiz-adv-x="1376" d="M1178 535h-979q-14 0 -24.5 10.5t-10.5 23.5v162q0 13 11 24t24 11h979q13 0 23.5 -10.5t10.5 -24.5v-162q0 -13 -10 -23.5t-24 -10.5z" />
<glyph unicode="&#x2018;" horiz-adv-x="598" d="M362 1462l82 -41q12 -6 16.5 -19.5t-1.5 -25.5q-70 -130 -99 -231q111 -36 111 -160q0 -71 -47.5 -119.5t-118.5 -48.5q-94 0 -138 53.5t-44 130.5q0 85 60 217.5t128 229.5q7 12 22.5 16t28.5 -2z" />
<glyph unicode="&#x2019;" horiz-adv-x="598" d="M236 831l-82 41q-12 6 -16.5 20t1.5 26q72 134 99 231q-111 36 -111 160q0 71 47.5 119.5t118.5 48.5q94 0 138 -54t44 -131q0 -85 -60 -217t-128 -229q-21 -28 -51 -15z" />
<glyph unicode="&#x201a;" horiz-adv-x="679" d="M276 -330l-81 41q-12 6 -16.5 19.5t1.5 25.5q30 56 59 124.5t40 107.5q-111 36 -111 159q0 71 47.5 119.5t118.5 48.5q94 0 138 -53.5t44 -130.5q0 -85 -60 -217t-128 -229q-9 -12 -23.5 -16.5t-28.5 1.5z" />
<glyph unicode="&#x201c;" horiz-adv-x="1071" d="M362 1462l82 -41q12 -6 16.5 -19.5t-1.5 -25.5q-70 -130 -99 -231q111 -36 111 -160q0 -71 -47.5 -119.5t-118.5 -48.5q-94 0 -138 53.5t-44 130.5q0 85 60 217.5t128 229.5q7 12 22.5 16t28.5 -2zM836 1462l82 -41q12 -6 16 -19.5t-2 -25.5q-68 -126 -98 -231 q110 -35 110 -160q0 -71 -47.5 -119.5t-118.5 -48.5q-94 0 -138 53.5t-44 130.5q0 85 60 217.5t128 229.5q7 12 23 16t29 -2z" />
<glyph unicode="&#x201d;" horiz-adv-x="1071" d="M709 831l-82 41q-12 6 -16.5 20t1.5 26q72 134 99 231q-111 36 -111 160q0 71 47.5 119.5t118.5 48.5q94 0 138 -54t44 -131q0 -85 -60 -217t-128 -229q-21 -28 -51 -15zM236 831l-82 41q-12 6 -16.5 20t1.5 26q72 134 99 231q-111 36 -111 160q0 71 47.5 119.5 t118.5 48.5q94 0 138 -54t44 -131q0 -85 -60 -217t-128 -229q-21 -28 -51 -15z" />
<glyph unicode="&#x201e;" horiz-adv-x="1114" d="M276 -330l-81 41q-12 6 -16.5 19.5t1.5 25.5q30 56 59 124.5t40 107.5q-111 36 -111 159q0 71 47.5 119.5t118.5 48.5q94 0 138 -53.5t44 -130.5q0 -85 -60 -217t-128 -229q-9 -12 -23.5 -16.5t-28.5 1.5zM793 -330l-82 41q-12 6 -16.5 19.5t1.5 25.5q30 56 59 124.5 t40 107.5q-111 36 -111 159q0 71 47.5 119.5t118.5 48.5q94 0 138 -53.5t44 -130.5q0 -85 -60 -217t-128 -229q-21 -28 -51 -15z" />
<glyph unicode="&#x2022;" horiz-adv-x="862" d="M426 330q-103 0 -182.5 80t-79.5 184q0 108 79.5 190t182.5 82q113 0 192.5 -81t79.5 -191q0 -106 -79.5 -185t-192.5 -79z" />
<glyph unicode="&#x2026;" horiz-adv-x="1597" d="M164 158q0 71 51 121.5t121 50.5q71 0 120.5 -50t49.5 -122q0 -70 -50 -120t-120 -50t-121 50t-51 120zM668 158q0 71 51 121.5t121 50.5q71 0 120.5 -50t49.5 -122q0 -70 -50 -120t-120 -50t-121 50t-51 120zM1174 158q0 71 51 121.5t121 50.5q71 0 120.5 -50t49.5 -122 q0 -70 -50 -120t-120 -50t-121 50t-51 120z" />
<glyph unicode="&#x202f;" horiz-adv-x="405" />
<glyph unicode="&#x2039;" horiz-adv-x="655" d="M360 524l211 -266q9 -11 8 -25.5t-12 -23.5l-96 -86q-10 -9 -25.5 -8.5t-25.5 10.5l-350 375q-9 14 -9 22q0 12 9 25l350 373q11 9 25.5 10t25.5 -8l96 -86q11 -9 12 -24t-8 -26z" />
<glyph unicode="&#x203a;" horiz-adv-x="655" d="M84 258l211 266l-211 262q-9 11 -8 26t12 24l96 86q11 9 26 8t26 -10l348 -373q10 -10 10 -25q0 -10 -8 -22l-350 -375q-10 -10 -26 -10.5t-26 8.5l-96 86q-11 9 -12 23.5t8 25.5z" />
<glyph unicode="&#x205f;" horiz-adv-x="507" />
<glyph unicode="&#x20ac;" horiz-adv-x="1196" d="M113 956h94q21 100 60 182.5t100 149.5t151 104.5t201 37.5q207 0 373 -175q9 -10 8.5 -25.5t-10.5 -25.5l-125 -125q-11 -10 -25 -9.5t-25 9.5q-108 97 -196 97q-179 0 -236 -220h346q12 0 20.5 -10t4.5 -22l-35 -129q-5 -14 -17.5 -23.5t-27.5 -9.5h-317v-39 q-3 -31 0 -70h260q13 0 21 -10t5 -22l-34 -129q-3 -14 -15.5 -23.5t-27.5 -9.5h-170q32 -99 88 -160t135 -61q43 0 97 25t104 69q11 9 24.5 9.5t24.5 -9.5l118 -119q10 -10 11 -25.5t-8 -25.5q-85 -89 -175 -132.5t-196 -43.5q-111 0 -200.5 38t-150 105.5t-99 149 t-60.5 180.5h-154q-13 0 -21 10.5t-3 22.5l37 129q5 14 17.5 23t27.5 9h71v74v35h-129q-13 0 -21 10.5t-3 22.5l37 129q5 14 17.5 23t27.5 9z" />
<glyph unicode="&#x2122;" horiz-adv-x="1349" d="M1018 1227l-111 -211q-6 -12 -20 -12q-15 0 -21 12l-110 205l-56 -183q-5 -14 -17.5 -23t-27.5 -9h-100q-12 0 -19.5 10t-3.5 22l191 488q3 12 16 12q12 0 19 -10l131 -256l123 254q6 12 18 12q16 0 19 -12l196 -488q4 -12 -3 -22t-19 -10h-97q-35 0 -45 32zM223 1040 v355h-96q-13 0 -24 10.5t-11 24.5v86q0 13 10.5 23.5t24.5 10.5h356q14 0 24.5 -10.5t10.5 -23.5v-86q0 -14 -11 -24.5t-24 -10.5h-96v-355q0 -13 -10.5 -23.5t-24.5 -10.5h-94q-14 0 -24.5 10.5t-10.5 23.5z" />
<glyph unicode="&#x25fc;" horiz-adv-x="1024" d="M0 1024h1024v-1024h-1024v1024z" />
</font>
</defs>
</svg>
